Торрент файл
скачать торрент магнет ссылка Добавлен: 03 мар 2014, 12:51
Размер: 1.48 ГБ
Сидеров: 2
Личеров: 2
Статус: (salma3)
Автор

СообщениеДобавлено: 03 мар 2014, 12:51 

Не в сети
Супермодератор
Аватара пользователя
Дата регистрации:
15 фев 2012, 16:44
Возраст: 27
Спасибо: 5143 / 2090
Сообщения: 17514
Бей в голову / Kick to the Head

Год выпуска: 2002
Жанр: Боевик, комедия, криминал
Режиссер: Салик Силверштайн / Salik Silverstein

В ролях: Стен Лонгинидис / Stan Longinidis, Артур Энжел / Arthur Angel, Джон Брамптон / John Brumpton

Описание:
Когда шестерка подставляет местного главаря бандитов, никто уже не будет смеяться над его шутками. Шутить начинает Папа. Остается только один шанс — найти кузена, бывшего спецназовца, мощного и бесстрашного бойца, который решает проблемы. Но когда спасение заходит слишком далеко… беглец может стать Крестным Отцом…стоит посмотреть!!!

Сэмпл

Страна: США
Продолжительность: 01:37:23
Перевод: Профессиональный (многоголосый, закадровый)

Файл
Качество: DVDRip [исх. DVD5]
Формат файла: AVI
Видео кодек: XviD
Аудио кодек: AC3
Video: 640x480 (1.33:1), 23.976 fps, XviD build 50 ~1971 kbps avg, 0.27 bit/pixel
Audio: 48 kHz, AC3 Dolby Digital, 2/0 (L,R) ch, ~192 kbps

Время Раздачи 11-00 до 16-00 + 20-00 до 03-00


Downloads\Kick_to_the_Head_2002.DVDRip.avi
Format : AVI
Format/Info : Audio Video Interleave
File size : 1.48 GiB
Duration : 1h 37mn
Overall bit rate : 2 172 Kbps
Writing application : VirtualDubMod 1.5.10.3 | http://www.virtualdub-fr.org || (build 2550/release)
Writing library : VirtualDubMod build 2550/release

Video
ID : 0
Format : MPEG-4 Visual
Format profile : Advanced Simple@L5
Format settings, BVOP : 3
Format settings, QPel : No
Format settings, GMC : No warppoints
Format settings, Matrix : Default (H.263)
Codec ID : XVID
Codec ID/Hint : XviD
Duration : 1h 37mn
Bit rate : 1 971 Kbps
Width : 640 pixels
Height : 480 pixels
Display aspect ratio : 4:3
Frame rate : 23.976 fps
Color space : YUV
Chroma subsampling : 4:2:0
Bit depth : 8 bits
Scan type : Progressive
Compression mode : Lossy
Bits/(Pixel*Frame) : 0.268
Stream size : 1.34 GiB (91%)
Writing library : XviD 1.2.1 (UTC 2008-12-04)

Audio
ID : 1
Format : AC-3
Format/Info : Audio Coding 3
Mode extension : CM (complete main)
Format settings, Endianness : Big
Codec ID : 2000
Duration : 1h 37mn
Bit rate mode : Constant
Bit rate : 192 Kbps
Channel(s) : 2 channels
Channel positions : Front: L R
Sampling rate : 48.0 KHz
Bit depth : 16 bits
Compression mode : Lossy
Stream size : 134 MiB (9%)
Alignment : Split accross interleaves
Interleave, duration : 42 ms (1.00 video frame)
Interleave, preload duration : 500 ms


Релиз от:


_________________



реклама партнёра


Вернуться к началу
 Профиль Отправить личное сообщение  
 
   Похожие торренты   Автор   Торрент   Размер 
В этой теме нет новых непрочитанных сообщений. Пипец 2 / Kick-Ass 2 [боевик, комедия, криминал, 2013] DVD5, Dub+Sub

salma3

27 | 6

4.37 ГБ

В этой теме нет новых непрочитанных сообщений. Пипец 2 / Kick-Ass 2 [боевик, комедия, криминал, 2013] BDRip 1008p, Dub [Лицензия]

Dracon

3 | 2

3.14 ГБ

В этой теме нет новых непрочитанных сообщений. Ищущий азарта / Kick [Комедия, мелодрама, боевик, 2009] DVDRip, Avo

salma3

8 | 2

815.22 МБ

В этой теме нет новых непрочитанных сообщений. По ту сторону закона / Dead Heat [Боевик, комедия, драма, криминал, 2002] DVDRip-AVC, Dvo

salma3

15 | 6

1.99 ГБ

В этой теме нет новых непрочитанных сообщений. Дикие Ангелы / Wilde Engel [боевик, комедия, криминал, 2002] DVDRip, Dvo [лицензия]

salma3

14 | 5

1.46 ГБ

В этой теме нет новых непрочитанных сообщений. Как снег на голову / Невпопад / Un chien dans un jeu de quilles [комедия, 1983] DVDRip, Mvo

salma3

85 | 5

1.34 ГБ

В этой теме нет новых непрочитанных сообщений. Saigon Kick - Greatest Mrs.: The Best Of Saigon Kick [1998, Hard Rock, Heavy Metal, MP3]

PriZraK

0 | 1

97.37 МБ


Начать новую тему Ответить на тему  [ 1 сообщение ] 




Для Мосгорсуда, Роскомнадзора и рекламодателей:: mosgorsud-torrent[собачка]yandex.ru