Торрент файл
скачать торрент магнет ссылка Добавлен: 27 фев 2014, 15:50
Размер: 1.46 ГБ
Сидеров: 192
Личеров: 4
Статус: (salma3)
Автор

СообщениеДобавлено: 27 фев 2014, 15:50 

Не в сети
Супермодератор
Аватара пользователя
Дата регистрации:
15 фев 2012, 16:44
Возраст: 27
Спасибо: 5121 / 2089
Сообщения: 17296
Муж двух жен / Run for Your Wife

Год выпуска: 2012
Жанр: комедия
Режиссер: Рэй Куни / Ray Cooney, Джон Лутон / John Luton

В ролях: Дэнни Дайер, Дениз Ван Оутен, Сара Хардинг, Нил Мориссей, Келли Ширли, Кристофер Биггинс, Лайонел Блэр, Николя Ле Прево, Бен Картрайт, Дерек Гриффитс...

Описание: Жизнь таксиста Джона Смита удалась! Он — самый счастливый человек на земле, и перспективы на будущее у него самые радужные. Все меняется в одночасье, когда при защите бездомной женщины от хулиганов его избивают. Джон не приходит вечером домой, и его жена Стефани обращается в полицию. Проблема в том, что одновременно в полицию обращается. .. его другая жена Мишель! Теперь Джону нужно приложить все усилия, чтобы полиция не узнала о его двоеженстве. Но есть задача и посложнее: не дать женам понять, что муж у них — один на двоих.



Страна: Великобритания / Run For Your Wife Film
Продолжительность: 01:29:48
Перевод: Профессиональный (многоголосый закадровый)

Файл
Качество: DVDRip
Формат файла: AVI
Видео кодек: XviD
Аудио кодек: AC3
Видео: 720x304 (2.35:1), 25.000 fps, XviD ~ 2057 kbps avg, 0.376 bit/pixel
Аудио: 48 kHz, Dolby AC3, 6 ch, 256 kbps, русский

Общее
Полное имя : Muzh.dvuh.zhen.2012.P.DVDRip_[New-Team]_by_avproh.avi
Формат : AVI
Формат/Информация : Audio Video Interleave
Размер файла : 1,46 Гбайт
Продолжительность : 1 ч. 29 м.
Общий поток : 2322 Кбит/сек
Программа кодирования : VirtualDubMod 1.5.10.3 | http://www.virtualdub-fr.org || (build 2550/release)
Библиотека кодирования : VirtualDubMod build 2550/release

Видео
Идентификатор : 0
Формат : MPEG-4 Visual
Профиль формата : Advanced Simple@L5
Параметр BVOP формата : 1
Параметр QPel формата : Нет
Параметр GMC формата : Без точки перехода
Параметр матрицы формата : Выборочная
Идентификатор кодека : XVID
Идентификатор кодека/Подсказка : XviD
Продолжительность : 1 ч. 29 м.
Битрейт : 2057 Кбит/сек
Ширина : 720 пикселей
Высота : 304 пикселя
Соотношение сторон : 2,35:1
Частота кадров : 25,000 кадров/сек
Цветовое пространство : YUV
Субдискретизация насыщенности : 4:2:0
Битовая глубина : 8 бит
Тип развёртки : Прогрессивная
Метод сжатия : С потерями
Бит/(Пиксели*Кадры) : 0.376
Размер потока : 1,29 Гбайт (89%)
Библиотека кодирования : XviD 73

Аудио
Идентификатор : 1
Формат : AC-3
Формат/Информация : Audio Coding 3
Расширение режима : CM (complete main)
Параметр Endianness формата : Big
Идентификатор кодека : 2000
Продолжительность : 1 ч. 29 м.
Вид битрейта : Постоянный
Битрейт : 256 Кбит/сек
Каналы : 6 каналов
Расположение каналов : Front: L C R, Side: L R, LFE
Частота : 48,0 КГц
Битовая глубина : 16 бит
Метод сжатия : С потерями
Размер потока : 164 Мбайт (11%)
Выравнивание : Разделение по промежуткам
Продолжительность промежутка : 40 мс. (1,00 видеокадр)
Время предзагрузки промежутка : 500 мс.



Раздача от:


_________________



реклама партнёра


Вернуться к началу
 Профиль Отправить личное сообщение  
 
   Похожие торренты   Автор   Торрент   Размер 
В этой теме нет новых непрочитанных сообщений. У двух голубок / Aux deux colombes [Комедия, 1955] DVDRip, Avo+Sub

salma3

13 | 2

1.43 ГБ

В этой теме нет новых непрочитанных сообщений. Real Wife Stories 9 / Реальные истории жён 9 (Brazzers) (Audrey Bitoni, Jordan Ash, Rachel Starr, Charles Dera, Johnny Sins...) [2011 г., All Sex, Gonzo, Big Boobs, Anal, Oral, MILF, Roleplaying, Straight, Wife, Facial, Bald, DVDRip 400p]

kite

0 | 5

2.09 ГБ

В этой теме нет новых непрочитанных сообщений. Игры двух сердец / Do Dilon Ke Khel Mein [Мелодрама, комедия, 2010] DVDRip, Mvo [Red Media]

salma3

7 | 5

1.36 ГБ

В этой теме нет новых непрочитанных сообщений. Афроiдиты [Комедия, 2012] DVDRip [лицензия]

Dracon

19 | 1

1.46 ГБ

В этой теме нет новых непрочитанных сообщений. [RealWifeStories.com / Brazzers.com] Riley Reid (My Cop Sucking Wife / 15.05.15) [2015 г., Work Fantasies, Cuckold, Natural Tits, Brunette, Couples Fantasies, Wife, Ass Worship, All Sex, SiteRip 480p]1000kbps

friizze

1 | 1

354.05 МБ

В этой теме нет новых непрочитанных сообщений. От двух и больше или Мега порево [2012-2014 г., Amateur,Russian,Blowjob,Classc,Thresome,Groupsex., CamRip]

kite

16 | 12

378.07 МБ

В этой теме нет новых непрочитанных сообщений. Приключение двух нянь / Adventures in Babysitting [комедия, 2016] WEB-DLRip-AVC, Mvo

salma3

107 | 15

1.93 ГБ


Начать новую тему Ответить на тему  [ 1 сообщение ] 




Для Мосгорсуда, Роскомнадзора и рекламодателей:: mosgorsud-torrent[собачка]yandex.ru