Торрент файл
скачать торрент магнет ссылка Добавлен: 27 фев 2014, 10:07
Размер: 2.08 ГБ
Сидеров: 7
Личеров: 2
Статус: (salma3)
Автор

СообщениеДобавлено: 27 фев 2014, 10:06 

Не в сети
Зам. Админа
Аватара пользователя
Дата регистрации:
02 дек 2010, 12:39
Спасибо: 12461 / 214
Сообщения: 27968
Год выпуска: 2013
Жанр: Фэнтези, драма, мелодрама
Выпущено: США, Warner Bros. Entertainment
Режиссер: Ричард ЛаГравенес

В ролях: Джереми Айронс, Эмми Россум, Эмма Томпсон, Виола Дэвис, Томас Манн, Кайл Галлнер, Олден Эйренрайк, Джастин Уачсбергер, Элис Энглерт, Зоя Дойч

Описание: Лена Дюкейн отличается от всех, кого когда-либо видел маленький южный город Гатлин, она борется с собой, пытаясь усмирить свою силу и проклятие, веками преследовавшее ее семью. Но даже в разросшихся садах, в мрачных болотах и на разрушенных могильниках позабытого Юга секрет не будет жить вечно.
Качество: HDRip-AVC
Видео: MPEG4 Video (H264) 1072x448 23.976fps 2 023 Kbps
Аудио: Dolby AC3 48000Hz 6ch 384kbps
Продолжительность: 02:03:44
Перевод: Дублированное [Лицензия]

General
Unique ID : 217067588538682875904817134038697169934 (0xA34DB2663864454F8093B812AE6CD40E)
Complete name : D:\Ф.М\Beautiful.Creatures.2013.D.HDRip-AVC.mkv
Format : Matroska
Format version : Version 2
File size : 2.08 GiB
Duration : 2h 3mn
Overall bit rate : 2 408 Kbps
Encoded date : UTC 2014-02-26 17:52:00
Writing application : mkvmerge v6.1.0 ('Old Devil') built on Mar 4 2013 09:10:42
Writing library : libebml v1.3.0 + libmatroska v1.4.0

Video
ID : 1
Format : AVC
Format/Info : Advanced Video Codec
Format profile : High@L4.1
Format settings, CABAC : Yes
Format settings, ReFrames : 5 frames
Codec ID : V_MPEG4/ISO/AVC
Duration : 2h 3mn
Bit rate : 2 023 Kbps
Width : 1 072 pixels
Height : 448 pixels
Display aspect ratio : 2.40:1
Frame rate mode : Constant
Frame rate : 23.976 fps
Color space : YUV
Chroma subsampling : 4:2:0
Bit depth : 8 bits
Scan type : Progressive
Bits/(Pixel*Frame) : 0.176
Stream size : 1.71 GiB (82%)
Writing library : x264 core 130 r2273 b3065e6
Encoding settings : cabac=1 / ref=5 / deblock=1:-3:-3 / analyse=0x3:0x133 / me=umh / subme=9 / psy=1 / psy_rd=1.00:0.15 / mixed_ref=1 / me_range=32 / chroma_me=1 / trellis=0 / 8x8dct=1 / cqm=0 / deadzone=21,11 / fast_pskip=1 / chroma_qp_offset=-2 / threads=6 / lookahead_threads=1 / sliced_threads=0 / nr=0 / decimate=1 / interlaced=0 / bluray_compat=0 / constrained_intra=0 / bframes=5 / b_pyramid=2 / b_adapt=2 / b_bias=0 / direct=3 / weightb=1 / open_gop=0 / weightp=2 / keyint=250 / keyint_min=23 / scenecut=40 / intra_refresh=0 / rc_lookahead=60 / rc=2pass / mbtree=1 / bitrate=2023 / ratetol=1.0 / qcomp=0.60 / qpmin=0 / qpmax=69 / qpstep=4 / cplxblur=20.0 / qblur=0.5 / ip_ratio=1.40 / aq=1:1.00
Default : Yes
Forced : No

Audio
ID : 2
Format : AC-3
Format/Info : Audio Coding 3
Mode extension : CM (complete main)
Format settings, Endianness : Big
Codec ID : A_AC3
Duration : 2h 3mn
Bit rate mode : Constant
Bit rate : 384 Kbps
Channel(s) : 6 channels
Channel positions : Front: L C R, Side: L R, LFE
Sampling rate : 48.0 KHz
Bit depth : 16 bits
Compression mode : Lossy
Stream size : 340 MiB (16%)
Default : Yes
Forced : No






реклама партнёра


Вернуться к началу
 Профиль  
 
   Похожие торренты   Автор   Торрент   Размер 
В этой теме нет новых непрочитанных сообщений. Рога / Horns (Александр Ажа) [ужасы, фэнтези, триллер, драма, 2013] HDRip, Mvo [Лицензия]

Dracon

184 | 10

1.37 ГБ

В этой теме нет новых непрочитанных сообщений. Иммигрантка / The Immigrant [драма, мелодрама, 2013] HDRip, Mvo [лицензия]

Dracon

989 | 29

1.46 ГБ

В этой теме нет новых непрочитанных сообщений. Довольно слов / Enough Said [драма, мелодрама, комедия, 2013] HDRip, Mvo [Лицензия]

Dracon

482 | 7

1.41 ГБ

В этой теме нет новых непрочитанных сообщений. Третья персона / Third Person [драма, мелодрама, 2013] HDRip, Mvo [Лицензия]

Dracon

33 | 2

2.06 ГБ

В этой теме нет новых непрочитанных сообщений. Третья персона / Third Person [драма, мелодрама, 2013] HDRip, Mvo [Лицензия]

Dracon

99 | 3

1.46 ГБ

В этой теме нет новых непрочитанных сообщений. Хоть раз в жизни / Begin again [драма, мелодрама, комедия, 2013] HDRip, Dub [Лицензия]

Dracon

839 | 17

2.05 ГБ

В этой теме нет новых непрочитанных сообщений. Жизнь Адель / La vie d'Adèle - Chapitres 1 et 2 [Драма, мелодрама, 2013] HDRip, Dub [Лицензия]

Dracon

237 | 6

2.19 ГБ


Начать новую тему Ответить на тему  [ 1 сообщение ] 




Для Мосгорсуда, Роскомнадзора и рекламодателей:: mosgorsud-torrent[собачка]yandex.ru