Торрент файл
скачать торрент магнет ссылка Добавлен: 26 фев 2014, 23:37
Размер: 1.46 ГБ
Сидеров: 39
Личеров: 3
Статус: (salma3)
Автор

СообщениеДобавлено: 26 фев 2014, 23:37 

В сети
Супермодератор
Аватара пользователя
Дата регистрации:
15 фев 2012, 16:44
Возраст: 27
Спасибо: 5131 / 2089
Сообщения: 17376
Смертельный поединок / Superfights

Год выпуска: 1995
Жанр: Боевик
Режиссер: Тони Люн Сиу Хунг

В ролях: Брэндон Гейнс, Ю Ю, Кит Витали, Келли Галлант, Чак Джеффрис, Клифф Лендерман, Брайан Рут, Патрик Лонг-Конг, Джим Стил, Кейт Хэкни

Описание: Когда юный мастер боевых искусств Джек предотвращает ограбление местного банка, его героический поступок попадает в выпуск телевизионных новостей. Неожиданно для самого себя Джек становится знаменитостью. Руководители организации «Супербойцы», организующей тренировки и соревнования любителей и профессионалов восточных единоборств, заинтересовавшись популярностью Джека, предлагают ему вступить в ее ряды. Сначала Джек очень гордится, что стал членом такой могущественной организации, но постепенно приходит к выводу, что она служит ширмой для прикрытия преступных сделок. И, предприняв расследование, которое должно разоблачить руководителей «Супербойцов» Джек принимает вызов на смертельный поединок!



Страна: США, Гонконг
Продолжительность: 01:34:04
Перевод: Профессиональный многоголосый, авторский (Алексеев)
Оригинальная аудиодорожка: Английская

Файл
Качество: DVDRip
Формат файла: AVI
Видео кодек: XviD
Аудио кодек: AC3
Видео: XviD, 1639 Кбит/с, 704х384
Аудио: Русский, английский (АС3, 2 ch, 192 Кбит/с)

Аудио#1: Профессиональный многоголосый
Аудио#2: Авторский (Алексеев)
Аудио#3: Английский
Общее
Полное имя : D:залитьСмертельный поединок.avi
Формат : AVI
Формат/Информация : Audio Video Interleave
Размер файла : 1,46 Гбайт
Продолжительность : 1 ч. 34 м.
Общий поток : 2227 Кбит/сек
Программа кодирования : VirtualDubMod 1.5.10.2 (build 2540/release)
Библиотека кодирования : VirtualDubMod build 2540/release

Видео
Идентификатор : 0
Формат : MPEG-4 Visual
Профиль формата : Advanced Simple@L5
Параметр BVOP формата : 1
Параметр QPel формата : Нет
Параметр GMC формата : Без точки перехода
Параметр матрицы формата : Default (H.263)
Идентификатор кодека : XVID
Идентификатор кодека/Подсказка : XviD
Продолжительность : 1 ч. 34 м.
Битрейт : 1632 Кбит/сек
Ширина : 704 пикселя
Высота : 384 пикселя
Соотношение сторон : 1,85:1
Частота кадров : 23,976 кадра/сек
Цветовое пространство : YUV
Субдискретизация насыщенности : 4:2:0
Битовая глубина : 8 бит
Тип развёртки : Прогрессивная
Метод сжатия : С потерями
Бит/(Пиксели*Кадры) : 0.252
Размер потока : 1,07 Гбайт (73%)
Библиотека кодирования : XviD 1.2.1 (UTC 2008-12-04)

Аудио #1
Идентификатор : 1
Формат : AC-3
Формат/Информация : Audio Coding 3
Расширение режима : CM (complete main)
Параметр Endianness формата : Big
Идентификатор кодека : 2000
Продолжительность : 1 ч. 34 м.
Вид битрейта : Постоянный
Битрейт : 192 Кбит/сек
Каналы : 2 канала
Расположение каналов : Front: L R
Частота : 48,0 КГц
Битовая глубина : 16 бит
Метод сжатия : С потерями
Размер потока : 129 Мбайт (9%)
Выравнивание : Разделение по промежуткам
Продолжительность промежутка : 42 мс. (1,00 видеокадр)
Время предзагрузки промежутка : 500 мс.

Аудио #2
Идентификатор : 2
Формат : AC-3
Формат/Информация : Audio Coding 3
Расширение режима : CM (complete main)
Параметр Endianness формата : Big
Идентификатор кодека : 2000
Продолжительность : 1 ч. 34 м.
Вид битрейта : Постоянный
Битрейт : 192 Кбит/сек
Каналы : 2 канала
Расположение каналов : Front: L R
Частота : 48,0 КГц
Битовая глубина : 16 бит
Метод сжатия : С потерями
Размер потока : 129 Мбайт (9%)
Выравнивание : Разделение по промежуткам
Продолжительность промежутка : 42 мс. (1,00 видеокадр)
Время предзагрузки промежутка : 500 мс.

Аудио #3
Идентификатор : 3
Формат : AC-3
Формат/Информация : Audio Coding 3
Расширение режима : CM (complete main)
Параметр Endianness формата : Big
Идентификатор кодека : 2000
Продолжительность : 1 ч. 34 м.
Вид битрейта : Постоянный
Битрейт : 192 Кбит/сек
Каналы : 2 канала
Расположение каналов : Front: L R
Частота : 48,0 КГц
Битовая глубина : 16 бит
Метод сжатия : С потерями
Размер потока : 129 Мбайт (9%)
Выравнивание : Разделение по промежуткам
Продолжительность промежутка : 42 мс. (1,00 видеокадр)
Время предзагрузки промежутка : 500 мс.

Автор рипа:


_________________



реклама партнёра


Вернуться к началу
 Профиль Отправить личное сообщение  
 
   Похожие торренты   Автор   Торрент   Размер 
В этой теме нет новых непрочитанных сообщений. Смертельный захват / Deadly Outbreak [Боевик, 1995] DVDRip, Avo [Гаврилов]

salma3

79 | 13

1.41 ГБ

В этой теме нет новых непрочитанных сообщений. Смертельный холод / Dead Cold [Боевик, триллер, драма, 1995] DVDRip, Avo

salma3

4 | 4

1.47 ГБ

В этой теме нет новых непрочитанных сообщений. Смертельный змей / Viper [Боевик, 1994] DVDRip-AVC, Dvo+Avo

salma3

21 | 4

2.08 ГБ

В этой теме нет новых непрочитанных сообщений. Третий поединок [Серия 1-4 из 4] (Вячеслав Воробьев) [Боевик, 2015] SATRip

Dracon

17 | 2

694.64 МБ

В этой теме нет новых непрочитанных сообщений. Поединок / Poolhall Junkies [триллер, драма, 2002] DVDRip-AVC, Dvo

salma3

114 | 39

2.39 ГБ

В этой теме нет новых непрочитанных сообщений. Смертельный шаг / Fatal Move / Duo shuai (Дэннис Ло / Dennis Law) [2008г., Гонконг, боевик, криминал, HDRip] AVO

Alfredovich

5 | 2

749.21 МБ

В этой теме нет новых непрочитанных сообщений. Немури Кеоширо 2: Поединок / Nemuri Kyoshiro 2: Shôbu (Кэндзи Мисуми) [1964, дзидай-гэки, самурайская драма, DVDRip] avo

Nickolas3435

35 | 2

747.08 МБ


Начать новую тему Ответить на тему  [ 1 сообщение ] 




Для Мосгорсуда, Роскомнадзора и рекламодателей:: mosgorsud-torrent[собачка]yandex.ru