Торрент файл
скачать торрент магнет ссылка Добавлен: 26 фев 2014, 18:44
Размер: 1.46 ГБ
Сидеров: 8
Личеров: 2
Статус: (salma3)
Автор

СообщениеДобавлено: 26 фев 2014, 18:44 

Не в сети
Супермодератор
Аватара пользователя
Дата регистрации:
15 фев 2012, 16:44
Возраст: 28
Спасибо: 6585 / 2145
Сообщения: 44094
Поцелуй смерти / Kiss Of Death

Год выпуска: 1994
Жанр: боевик, триллер, криминал
Режиссер: Барбет Шредер / Barbet Schroeder

В ролях: Дэвид Карузо, Сэмюэл Л. Джексон, Николас Кейдж, Хелен Хант, Кэтрин Эрбе, Стенли Туччи, Майкл Рапапорт, Винг Рэймс, Филип Бейкер Холл, Энтони Хилд

Описание:
Бывшему заключенному Джимми Килмартину не позавидуешь. После того, как он вышел из тюрьмы на свободу, полицейские, не оставив выбора, решили использовать его в качестве «стукача», внедрив в одну из криминальных группировок Нью — Йорка.

Джимми придется лавировать между амбициями честолюбивого прокурора, рвущегося любыми способами усадить гангстеров за решетку, и смертельными играми безжалостного главаря бандитов, для которого нет врага хуже предателя. Джимми, оказавшийся в безвыходном положении, будет готов ощутить на себе поцелуй смерти, лишь бы вырваться из засасывающей его зловещей трясины лжи, предательства и вероломства…



Страна: США
Продолжительность: 01:36:37
Перевод: Профессиональный [многоголосый закадровый] [R5]

Файл
Качество: DVDRip
Формат файла: AVI
Видео кодек: XviD
Аудио кодек: AC3
Видео: 720x400 (1.80:1), 25 fps, XviD build 47 ~1700 kbps avg, 0.24 bit/pixel
Аудио: Русский: 48 kHz, AC3 Dolby Digital, 3/2 (L,C,R,l,r) + LFE ch, ~448.00 kbps avg


General
Complete name : E:\Фильмы\Поцелуй смерти.1995.DVDRip.MVO.[tfile.ru].avi
Format : AVI
Format/Info : Audio Video Interleave
File size : 1.46 GiB
Duration : 1h 36mn
Overall bit rate : 2 158 Kbps
Writing application : VirtualDubMod 1.5.10.2 (build 2540/release)
Writing library : VirtualDubMod build 2540/release

Video
ID : 0
Format : MPEG-4 Visual
Format profile : Advanced Simple@L5
Format settings, BVOP : 1
Format settings, QPel : No
Format settings, GMC : No warppoints
Format settings, Matrix : Default (MPEG)
Codec ID : XVID
Codec ID/Hint : XviD
Duration : 1h 36mn
Bit rate : 1 701 Kbps
Width : 720 pixels
Height : 400 pixels
Display aspect ratio : 16:9
Frame rate : 25.000 fps
Color space : YUV
Chroma subsampling : 4:2:0
Bit depth : 8 bits
Scan type : Progressive
Compression mode : Lossy
Bits/(Pixel*Frame) : 0.236
Stream size : 1.15 GiB (79%)
Writing library : XviD 1.2.0.dev47 (UTC 2006-11-01)

Audio
ID : 1
Format : AC-3
Format/Info : Audio Coding 3
Mode extension : CM (complete main)
Codec ID : 2000
Duration : 1h 36mn
Bit rate mode : Constant
Bit rate : 448 Kbps
Channel(s) : 6 channels
Channel positions : Front: L C R, Side: L R, LFE
Sampling rate : 48.0 KHz
Bit depth : 16 bits
Compression mode : Lossy
Stream size : 310 MiB (21%)
Alignment : Split accross interleaves
Interleave, duration : 40 ms (1.00 video frame)
Interleave, preload duration : 500 ms



_________________
Проголосуй за трекер Открытый торрент трекер - RUS-MEDIA.ORG

Проголосуй Открытый торрент трекер - RUS-MEDIA.ORG



реклама партнёра


Вернуться к началу
 Профиль Отправить личное сообщение  
 
   Похожие торренты   Автор   Торрент   Размер 
В этой теме нет новых непрочитанных сообщений. Жажда смерти 5: Лик смерти / Death Wish V: The Face of Death [Боевик, Криминал, Триллер, 1994] BDRip-AVC, mvo

salma3

17 | 4

2.85 ГБ

В этой теме нет новых непрочитанных сообщений. Черная мамба: поцелуй смерти / Black Mamba: kiss of death [документальный , 2014] HDTVRip, Avo

salma3

23 | 8

597.19 МБ

В этой теме нет новых непрочитанных сообщений. Поцелуй или убей / Kiss or Kill [триллер, драма, криминал, 1997] DVDRip, Dvo

salma3

16 | 4

1.46 ГБ

В этой теме нет новых непрочитанных сообщений. Поцелуй Иуды / Judas Kiss [триллер, драма, криминал, 1998] DVDRip-AVC, Avo+Sub

salma3

66 | 21

1.92 ГБ

В этой теме нет новых непрочитанных сообщений. Поцелуй перед смертью / A Kiss Before Dying [триллер, криминал, детектив, 1991] DVDRip, Dvo

salma3

50 | 9

1.46 ГБ

В этой теме нет новых непрочитанных сообщений. Бой до смерти / Death Match [боевик, драма, 1994] DVDRip, Avo

salma3

22 | 4

1.37 ГБ

В этой теме нет новых непрочитанных сообщений. Долгий поцелуй на ночь / The Long Kiss Goodnight [Боевик, триллер, драма, 1996] HDRip-AVC, Mvo

salma3

81 | 9

742.71 МБ


Начать новую тему Ответить на тему  [ 1 сообщение ] 




Для Мосгорсуда, Роскомнадзора и рекламодателей:: mosgorsud-torrent[собачка]yandex.ru