Торрент файл
скачать торрент магнет ссылка Добавлен: 23 фев 2014, 18:37
Размер: 1.45 ГБ
Сидеров: 7
Личеров: 6
Статус: (salma3)
Автор

СообщениеДобавлено: 23 фев 2014, 18:37 

Не в сети
Супермодератор
Аватара пользователя
Дата регистрации:
15 фев 2012, 16:44
Возраст: 27
Спасибо: 5139 / 2089
Сообщения: 17425
Белый медведь / Der Eisbär

Год выпуска: 1998
Жанр: боевик, триллер
Режиссер: Тиль Швайгер / Til Schweiger, Гранц Хенман / Granz Henman

В ролях: Tиль Швайгер, Карина Кравчик, Бенно Фюрманн, Флориан Лукас, Юрген Таррач, Владимир Вейгл

Описание: Один из героев картины — Лео, профессиональный киллер, допустил ошибку — не верно выполнив заказ — и теперь сам должен умереть. Второй персонаж — Ника, также допустившая ошибку, она не смогла доставить по назначению специальный автомобиль. Два парня Фабиан и Реза угнали ее, но они и не предполагали в какой переплет из-за этого попадут. Случай сводит Лео и Нику в маленькой пивной. Они понимают что друг без друга не могут жить, однако им самим осталось жить очень мало…



Страна: Германия
Продолжительность: 01:26:56
Перевод: Авторский (одноголосый закадровый) [Юрий Живов]
Оригинальная аудиодорожка: немецкий

Качество видео: DVDRip-AVC [Исходник DVD9]
Формат видео: MKV
Видео кодек: H.264
Аудио кодек: AC3
Видео: 704x436@1018x436 (2:35:1), 25 fps, H264 ~ 1 818 kbps avg, 0.237 bit/pixel
Аудио #1: 48 kHz, AC3 Dolby Digital, 2/0 (L,R) ch, ~192 kbps | AVO
Аудио #2: 48 kHz, AC3 Dolby Digital, 3/2 (L,C,R,l,r) + LFE ch, ~384 kbps | Original


D:Мои рипыDer.Eisbar.DVDRip-AVC.dexter_lex.mkv
General
Unique ID : 219804244363500712891663032562880886604 (0xA55CC1F2E153E67CA42E9A0D9314374C)
Complete name : D:Мои рипыDer.Eisbar.DVDRip-AVC.dexter_lex.mkv
Format : Matroska
Format version : Version 4 / Version 2
File size : 1.45 GiB
Duration : 1h 26mn
Overall bit rate : 2 396 Kbps
Encoded date : UTC 2014-02-21 03:00:51
Writing application : mkvmerge v6.1.0 ('Old Devil') built on Mar 4 2013 09:10:42
Writing library : libebml v1.3.0 + libmatroska v1.4.0
Video #1
ID : 1
Format : AVC
Format/Info : Advanced Video Codec
Format profile : High@L4.1
Format settings, CABAC : Yes
Format settings, ReFrames : 11 frames
Codec ID : V_MPEG4/ISO/AVC
Duration : 1h 26mn
Bit rate : 1 818 Kbps
Width : 704 pixels
Height : 436 pixels
Display aspect ratio : 2.35:1
Original display aspect ratio : 2.35:1
Frame rate : 25.000 fps
Color space : YUV
Chroma subsampling : 4:2:0
Bit depth : 8 bits
Scan type : Progressive
Bits/(Pixel*Frame) : 0.237
Stream size : 1.08 GiB (74%)
Writing library : x264 core 130 r2273 b3065e6
Encoding settings : cabac=1 / ref=11 / deblock=1:-2:-1 / analyse=0x3:0x113 / me=umh / subme=10 / psy=1 / psy_rd=1.00:0.20 / mixed_ref=1 / me_range=48 / chroma_me=1 / trellis=2 / 8x8dct=1 / cqm=0 / deadzone=21,11 / fast_pskip=0 / chroma_qp_offset=-3 / threads=6 / lookahead_threads=1 / sliced_threads=0 / nr=0 / decimate=0 / interlaced=0 / bluray_compat=0 / constrained_intra=0 / bframes=8 / b_pyramid=2 / b_adapt=2 / b_bias=0 / direct=3 / weightb=1 / open_gop=0 / weightp=2 / keyint=250 / keyint_min=25 / scenecut=40 / intra_refresh=0 / rc_lookahead=60 / rc=2pass / mbtree=1 / bitrate=1818 / ratetol=1.0 / qcomp=0.60 / qpmin=0 / qpmax=69 / qpstep=4 / cplxblur=20.0 / qblur=0.5 / ip_ratio=1.40 / aq=1:1.00
Default : Yes
Forced : No
Audio #2
ID : 2
Format : AC-3
Format/Info : Audio Coding 3
Mode extension : CM (complete main)
Codec ID : A_AC3
Duration : 1h 26mn
Bit rate mode : Constant
Bit rate : 192 Kbps
Channel(s) : 2 channels
Channel positions : Front: L R
Sampling rate : 48.0 KHz
Bit depth : 16 bits
Compression mode : Lossy
Stream size : 119 MiB (8%)
Title : AVO (Живов)
Language : Russian
Default : No
Forced : No
Audio #3
ID : 3
Format : AC-3
Format/Info : Audio Coding 3
Mode extension : CM (complete main)
Codec ID : A_AC3
Duration : 1h 26mn
Bit rate mode : Constant
Bit rate : 384 Kbps
Channel(s) : 6 channels
Channel positions : Front: L C R, Side: L R, LFE
Sampling rate : 48.0 KHz
Bit depth : 16 bits
Compression mode : Lossy
Stream size : 239 MiB (16%)
Title : Original
Language : German
Default : Yes
Forced : No

Раздача от:


_________________



реклама партнёра


Вернуться к началу
 Профиль Отправить личное сообщение  
 
   Похожие торренты   Автор   Торрент   Размер 
В этой теме нет новых непрочитанных сообщений. Белый медведь / Der Eisbär [боевик, триллер, 1998] DVDRip, Avo

salma3

15 | 2

1.46 ГБ

В этой теме нет новых непрочитанных сообщений. Бесконечно белый медведь / Infinitely Polar Bear [Драма, комедия, 2014] HDRip, Mvo

Dracon

275 | 5

1.37 ГБ

В этой теме нет новых непрочитанных сообщений. Бесконечно белый медведь / Infinitely Polar Bear [Драма, комедия, 2014] BDRip-AVC, Mvo [Лицензия]

Dracon

296 | 60

2.18 ГБ

В этой теме нет новых непрочитанных сообщений. Бесконечно белый медведь / Infinitely Polar Bear [Драма, комедия, 2014] BDRip 720p, Mvo [Лицензия]

Dracon

520 | 69

5.63 ГБ

В этой теме нет новых непрочитанных сообщений. Бесконечно белый медведь / Infinitely Polar Bear [Драма, комедия, 2014] BDRip 1080p, Mvo [Лицензия]

Dracon

302 | 59

10.52 ГБ

В этой теме нет новых непрочитанных сообщений. Маша и Медведь. Пещерный медведь [48] [Мультсериал, сказка, детский, семейный. 2014] WEBRip

Dracon

116 | 5

97.91 МБ

В этой теме нет новых непрочитанных сообщений. Блэкджек / Blackjack [боевик, триллер, 1998] DVDRip-AVC, Mvo+Avo

salma3

0 | 0

2.33 ГБ


Начать новую тему Ответить на тему  [ 1 сообщение ] 




Для Мосгорсуда, Роскомнадзора и рекламодателей:: mosgorsud-torrent[собачка]yandex.ru