Торрент файл
скачать торрент магнет ссылка Добавлен: 23 фев 2014, 18:30
Размер: 1.46 ГБ
Сидеров: 15
Личеров: 2
Статус: (salma3)
Автор

СообщениеДобавлено: 23 фев 2014, 18:30 

Не в сети
Супермодератор
Аватара пользователя
Дата регистрации:
15 фев 2012, 16:44
Возраст: 27
Спасибо: 5130 / 2089
Сообщения: 17350
Белый медведь / Der Eisbär

Год выпуска: 1998
Жанр: боевик, триллер
Режиссер: Тиль Швайгер / Til Schweiger, Гранц Хенман / Granz Henman

В ролях: Tиль Швайгер, Карина Кравчик, Бенно Фюрманн, Флориан Лукас, Юрген Таррач, Владимир Вейгл

Описание: Один из героев картины — Лео, профессиональный киллер, допустил ошибку — не верно выполнив заказ — и теперь сам должен умереть. Второй персонаж — Ника, также допустившая ошибку, она не смогла доставить по назначению специальный автомобиль. Два парня Фабиан и Реза угнали ее, но они и не предполагали в какой переплет из-за этого попадут. Случай сводит Лео и Нику в маленькой пивной. Они понимают что друг без друга не могут жить, однако им самим осталось жить очень мало…



Страна: Германия
Продолжительность: 01:26:56
Перевод: Авторский (одноголосый закадровый) [Юрий Живов]
Оригинальная аудиодорожка: немецкий

Качество видео: DVDRip [Исходник DVD9]
Формат видео: AVI
Видео кодек: XviD
Аудио кодек: AC3
Видео: 720x304 (2.37:1), 25 fps, XviD build 73 ~1816 kbps avg, 0.33 bit/pixel
Аудио #1: 48 kHz, AC3 Dolby Digital, 2/0 (L,R) ch, ~192 kbps | AVO
Аудио #2: 48 kHz, AC3 Dolby Digital, 3/2 (L,C,R,l,r) + LFE ch, ~384 kbps | Original


D:Мои рипыDer.Eisbar.DVDRip.dexter_lex.avi
General
Complete name : D:Мои рипыDer.Eisbar.DVDRip.dexter_lex.avi
Format : AVI
Format/Info : Audio Video Interleave
File size : 1.46 GiB
Duration : 1h 26mn
Overall bit rate : 2 408 Kbps
Writing application : VirtualDubMod 1.5.10.3 | http://www.virtualdub-fr.org || (build 2550/release)
Writing library : VirtualDubMod build 2550/release
Video #0
ID : 0
Format : MPEG-4 Visual
Format profile : Advanced Simple@L5
Format settings, BVOP : 1
Format settings, QPel : No
Format settings, GMC : No warppoints
Format settings, Matrix : Custom
Codec ID : XVID
Codec ID/Hint : XviD
Duration : 1h 26mn
Bit rate : 1 818 Kbps
Width : 720 pixels
Height : 304 pixels
Display aspect ratio : 2.35:1
Frame rate : 25.000 fps
Color space : YUV
Chroma subsampling : 4:2:0
Bit depth : 8 bits
Scan type : Progressive
Compression mode : Lossy
Bits/(Pixel*Frame) : 0.332
Stream size : 1.10 GiB (75%)
Writing library : XviD 73
Audio #1
ID : 1
Format : AC-3
Format/Info : Audio Coding 3
Mode extension : CM (complete main)
Codec ID : 2000
Duration : 1h 26mn
Bit rate mode : Constant
Bit rate : 192 Kbps
Channel(s) : 2 channels
Channel positions : Front: L R
Sampling rate : 48.0 KHz
Bit depth : 16 bits
Compression mode : Lossy
Stream size : 119 MiB (8%)
Alignment : Split accross interleaves
Interleave, duration : 40 ms (1.00 video frame)
Interleave, preload duration : 500 ms
Audio #2
ID : 2
Format : AC-3
Format/Info : Audio Coding 3
Mode extension : CM (complete main)
Codec ID : 2000
Duration : 1h 26mn
Bit rate mode : Constant
Bit rate : 384 Kbps
Channel(s) : 6 channels
Channel positions : Front: L C R, Side: L R, LFE
Sampling rate : 48.0 KHz
Bit depth : 16 bits
Compression mode : Lossy
Stream size : 239 MiB (16%)
Alignment : Split accross interleaves
Interleave, duration : 40 ms (1.00 video frame)
Interleave, preload duration : 500 ms


Раздача от:


_________________



реклама партнёра


Вернуться к началу
 Профиль Отправить личное сообщение  
 
   Похожие торренты   Автор   Торрент   Размер 
В этой теме нет новых непрочитанных сообщений. Белый медведь / Der Eisbär [боевик, триллер, 1998] DVDRip-AVC, Avo

salma3

7 | 6

1.45 ГБ

В этой теме нет новых непрочитанных сообщений. Бесконечно белый медведь / Infinitely Polar Bear [Драма, комедия, 2014] HDRip, Mvo

Dracon

275 | 5

1.37 ГБ

В этой теме нет новых непрочитанных сообщений. Бесконечно белый медведь / Infinitely Polar Bear [Драма, комедия, 2014] BDRip-AVC, Mvo [Лицензия]

Dracon

296 | 60

2.18 ГБ

В этой теме нет новых непрочитанных сообщений. Бесконечно белый медведь / Infinitely Polar Bear [Драма, комедия, 2014] BDRip 720p, Mvo [Лицензия]

Dracon

520 | 69

5.63 ГБ

В этой теме нет новых непрочитанных сообщений. Бесконечно белый медведь / Infinitely Polar Bear [Драма, комедия, 2014] BDRip 1080p, Mvo [Лицензия]

Dracon

302 | 59

10.52 ГБ

В этой теме нет новых непрочитанных сообщений. Маша и Медведь. Пещерный медведь [48] [Мультсериал, сказка, детский, семейный. 2014] WEBRip

Dracon

116 | 5

97.91 МБ

В этой теме нет новых непрочитанных сообщений. Блэкджек / Blackjack [боевик, триллер, 1998] DVDRip-AVC, Mvo+Avo

salma3

0 | 0

2.33 ГБ


Начать новую тему Ответить на тему  [ 1 сообщение ] 




Для Мосгорсуда, Роскомнадзора и рекламодателей:: mosgorsud-torrent[собачка]yandex.ru