Торрент файл
скачать торрент магнет ссылка Добавлен: 22 фев 2014, 22:33
Размер: 1.46 ГБ
Сидеров: 63
Личеров: 5
Статус: (salma3)
Автор

СообщениеДобавлено: 22 фев 2014, 22:33 

Не в сети
Супермодератор
Аватара пользователя
Дата регистрации:
15 фев 2012, 16:44
Возраст: 28
Спасибо: 6577 / 2143
Сообщения: 43865
Громила и скороход / Thunderbolt and Lightfoot

Год выхода: 1974
Жанр: Драма, комедия, криминал
Режиссер: Майкл Чимино

В ролях: Клинт Иствуд, Джефф Бриджес, Джеффри Льюис, Кэтрин Бак, Гэри Бьюзи, Джек Додсон, Джин Элман, Бертон Гиллиам

О фильме:
Преступник, отколовшийся от своей банды после давнего неудачного ограбления, пытается разыскать спрятанные деньги, не подозревая, что его бывшие дружки идут по тому же следу. К тому же в напарники он берет непутевого бродягу.


Страна: США
Продолжительность: 01:54:54
Перевод: Профессиональный [многоголосы]

Файл
Качество: DVDRip
Формат файла: AVI
Видео кодек: XviD
Аудио кодек: AC3
Видео: 720x304, 23.976 fps, 1617 kbps
Звук: AC3, 2 ch, 192 kbps

Общее
Полное имя : Thunderbolt.And.Lightfoot.1974.HDRip.avi
Формат : AVI
Формат/Информация : Audio Video Interleave
Размер файла : 1,46 Гбайт
Продолжительность : 1 ч. 54 м.
Общий поток : 1818 Кбит/сек
Программа кодирования : VirtualDubMod 1.5.10.3 | http://www.virtualdub-fr.org || (build 2550/release)
Библиотека кодирования : VirtualDubMod build 2550/release

Видео
Идентификатор : 0
Формат : MPEG-4 Visual
Профиль формата : Advanced Simple@L5
Параметр BVOP формата : 1
Параметр QPel формата : Нет
Параметр GMC формата : Без точки перехода
Параметр матрицы формата : Выборочная
Идентификатор кодека : XVID
Идентификатор кодека/Подсказка : XviD
Продолжительность : 1 ч. 54 м.
Битрейт : 1617 Кбит/сек
Ширина : 720 пикс.
Высота : 304 пикс.
Соотношение сторон : 2,35:1
Частота кадров : 23,976 кадр/сек
Цветовое пространство : YUV
Подвыборка цветности : 4:2:0
Битовая глубина : 8 бит
Тип развёртки : Прогрессивная
Метод сжатия : С потерями
Бит/(Пиксели*Кадры) : 0.308
Размер потока : 1,30 Гбайт (89%)
Библиотека кодирования : XviD 73

Аудио
Идентификатор : 1
Формат : AC-3
Формат/Информация : Audio Coding 3
Расширение режима : CM (complete main)
Идентификатор кодека : 2000
Продолжительность : 1 ч. 54 м.
Вид битрейта : Постоянный
Битрейт : 192 Кбит/сек
Канал(ы) : 2 канала(ов)
Расположение каналов : Front: L R
Частота : 48,0 КГц
Битовая глубина : 16 бит
Метод сжатия : С потерями
Размер потока : 158 Мбайт (11%)
Выравнивание : Разделение по промежуткам
Продолжительность промежутка : 42 мс. (1,00 видеокадр)
Время предзагрузки промежутка : 500 ms


Релиз от: Leon-masl


_________________
Проголосуй за трекер Открытый торрент трекер - RUS-MEDIA.ORG

Проголосуй Открытый торрент трекер - RUS-MEDIA.ORG



реклама партнёра


Вернуться к началу
 Профиль Отправить личное сообщение  
 
   Похожие торренты   Автор   Торрент   Размер 
В этой теме нет новых непрочитанных сообщений. Воры как мы / Thieves Like Us [драма, мелодрама, криминал, 1974] HDRip, Mvo

salma3

35 | 18

1.45 ГБ

В этой теме нет новых непрочитанных сообщений. Якудза / The Yakuza [боевик, триллер, драма, криминал, 1974] HDRip, Dvo [НТВ]

salma3

137 | 20

1.46 ГБ

В этой теме нет новых непрочитанных сообщений. Грязная Мэри, сумасшедший Ларри / Dirty Mary Crazy Larry [триллер, драма, мелодрама, криминал, 1974] HDRip, Mvo

salma3

72 | 16

1.45 ГБ

В этой теме нет новых непрочитанных сообщений. Нехорошая мамаша / Big Bad Mama [боевик, драма, комедия, 1974] HDRip, Avo

salma3

38 | 5

1.09 ГБ

В этой теме нет новых непрочитанных сообщений. Шугарлендский экспресс / [драма, комедия, криминал, приключения, 1974] BDRip, Mvo [Лицензия]

salma3

90 | 10

1.45 ГБ

В этой теме нет новых непрочитанных сообщений. Шугарлендский экспресс / The Sugarland Express [драма, комедия, криминал, приключения, 1974] BDRip-AVC, Mvo

salma3

15 | 2

1.45 ГБ

В этой теме нет новых непрочитанных сообщений. Призрак рая / Phantom of the Paradise [Фэнтези, триллер, драма, комедия, музыка, 1974] HDRip, Dvo

salma3

33 | 8

744.71 МБ


Начать новую тему Ответить на тему  [ 1 сообщение ] 




Для Мосгорсуда, Роскомнадзора и рекламодателей:: mosgorsud-torrent[собачка]yandex.ru