Торрент файл
скачать торрент магнет ссылка Добавлен: 20 фев 2014, 18:50
Размер: 1.64 ГБ
Сидеров: 8
Личеров: 2
Статус: (salma3)
Автор

СообщениеДобавлено: 20 фев 2014, 18:50 

Не в сети
Супермодератор
Аватара пользователя
Дата регистрации:
15 фев 2012, 16:44
Возраст: 27
Спасибо: 5135 / 2089
Сообщения: 17406
Народ против Ларри Флинта / The People vs. Larry Flynt

Год выпуска: 1996
Жанр: драма, биография
Режиссер: Милош Форман / Milos Forman

В ролях: Вуди Харрельсон, Кортни Лав, Эдвард Нортон, Бретт Харрельсон, Донна Хэновер, Джеймс Кромуэлл, Криспин Гловер, Винсент Скьявелли, Майлз Чэпин, Джеймс Карвилл

Описание:
Ларри Флинт — герой семидесятых, эпохи сексуальной революции, наркотиков и культурных катаклизмов. Он видел — людям нужно нечто большее, чем ТВ и пикники по уик-эндам. Им нужны зрелища.
Обладая завидной интуицией он решил сделать шаг, который навсегда изменил его жизнь и разделил общество на тех, кто был за и против него. Он стал издавать порножурнал. Но «Hustler» стал не просто журналом. Это был вызов обществу. И оскорбленное общество решило наказать Ларри Флинта.



Страна: США
Продолжительность: 02:09:28
Перевод: Профессиональный [многоголосый закадровый] [ОРТ]

Файл
Качество: HDRip
Формат файла: AVI
Видео кодек: XviD
Аудио кодек: AC3
Видео: 688x288 (2.39:1), 23.976 fps, XviD build 63 ~1216 kbps avg, 0.26 bit/pixel
Аудио 1: Русский: 48 kHz, AC3 Dolby Digital, 2/0 (L,R) ch, ~192 kbps [многоголосый]
Аудио 2: Русский: 48 kHz, AC3 Dolby Digital, 2/0 (L,R) ch, ~192 kbps [многоголосый]
Аудио 3: Русский: 48 kHz, AC3 Dolby Digital, 2/0 (L,R) ch, ~192 kbps [двухголосый]



General
Complete name : E:\Фильмы\Народ против Ларри Флинта.HDRip.1996.2xMVO+DVO.[tfile.ru].avi
Format : AVI
Format/Info : Audio Video Interleave
File size : 1.64 GiB
Duration : 2h 9mn
Overall bit rate : 1 813 Kbps
Writing application : VirtualDubMod 1.5.10.3 (build 2550/release)
Writing library : VirtualDubMod build 2550/release

Video
ID : 0
Format : MPEG-4 Visual
Format profile : Advanced Simple@L5
Format settings, BVOP : 1
Format settings, QPel : No
Format settings, GMC : No warppoints
Format settings, Matrix : Custom
Codec ID : XVID
Codec ID/Hint : XviD
Duration : 2h 9mn
Bit rate : 1 218 Kbps
Width : 688 pixels
Height : 288 pixels
Display aspect ratio : 2.35:1
Frame rate : 23.976 fps
Color space : YUV
Chroma subsampling : 4:2:0
Bit depth : 8 bits
Scan type : Progressive
Compression mode : Lossy
Bits/(Pixel*Frame) : 0.256
Stream size : 1.10 GiB (67%)
Writing library : XviD 63

Audio #1
ID : 1
Format : AC-3
Format/Info : Audio Coding 3
Mode extension : CM (complete main)
Codec ID : 2000
Duration : 2h 9mn
Bit rate mode : Constant
Bit rate : 192 Kbps
Channel(s) : 2 channels
Channel positions : Front: L R
Sampling rate : 48.0 KHz
Bit depth : 16 bits
Compression mode : Lossy
Stream size : 178 MiB (11%)
Alignment : Split accross interleaves
Interleave, duration : 42 ms (1.00 video frame)
Interleave, preload duration : 500 ms

Audio #2
ID : 2
Format : AC-3
Format/Info : Audio Coding 3
Mode extension : CM (complete main)
Codec ID : 2000
Duration : 2h 9mn
Bit rate mode : Constant
Bit rate : 192 Kbps
Channel(s) : 2 channels
Channel positions : Front: L R
Sampling rate : 48.0 KHz
Bit depth : 16 bits
Compression mode : Lossy
Stream size : 178 MiB (11%)
Alignment : Split accross interleaves
Interleave, duration : 42 ms (1.00 video frame)
Interleave, preload duration : 500 ms

Audio #3
ID : 3
Format : AC-3
Format/Info : Audio Coding 3
Mode extension : CM (complete main)
Codec ID : 2000
Duration : 2h 9mn
Bit rate mode : Constant
Bit rate : 192 Kbps
Channel(s) : 2 channels
Channel positions : Front: L R
Sampling rate : 48.0 KHz
Bit depth : 16 bits
Compression mode : Lossy
Stream size : 178 MiB (11%)
Alignment : Split accross interleaves
Interleave, duration : 42 ms (1.00 video frame)
Interleave, preload duration : 500 ms
«Бесполезно спорить о вкусе, а уж тем более судиться из-за него».
Фильм снят по мотивам биографии основателя порнографического журнала «Hustler» Лари Клэкстона Флинта, изменившего взгляд на моральную и этическую сторону жизни, как самих американцев, так и всего остального мира. Стоя у истоков сексуальной революции, на фоне американской свободы и христианских устоев, он бросает вызов обществу, задавая главный вопрос: «Что более непристойно – секс или война?». Он открывает новый взгляд на провозглашенный постулат «свободы слова», смешав воедино секс и религию. Фильм о человеке, против которого восстал весь мир, но продолжающего идти к своей цели – свободно выражать свою точку зрения. Показательные судебные процессы над «похотью и алчностью» только усиливают впечатление от того общественного резонанса, который на всех произвел Лари Флинт. Гениальный фильм Милоша Формана, смотрится на одном дыхании, актуален и в настоящее время. Великолепная игра Вуди Харрельсона из его героя – Лари Флинта, - делает бунтаря, заслуживающего уважения, который, однако, по-сути, является торговцем грязи. Но Форман заставляет ему сопереживать и сочувствовать. Безусловно, также Кортни Лав и Эдвард Нортон внесли свой неоценимый вклад, чтобы фильму дали оценку 10 из 10.
Стоит ли смотреть данную киноленту? Думаю, да. Обязательно ли ее смотреть? Думаю, да. Разочаруетесь ли вы в ней? Думаю, нет. И скажите всем: «Извращенец вернулся!»

Участник группы "Рецензенты" _ mazdie345














_________________



реклама партнёра


Вернуться к началу
 Профиль Отправить личное сообщение  
 
   Похожие торренты   Автор   Торрент   Размер 
В этой теме нет новых непрочитанных сообщений. Грязная Мэри, сумасшедший Ларри / Dirty Mary Crazy Larry [драма, приключения, 1974] BDRip 720p, Mvo

salma3

11 | 3

5.86 ГБ

В этой теме нет новых непрочитанных сообщений. Таинственная женщина: Роковые снимки / Mystery Woman: Snapshot (Ларри Левинсон / Larry Levinson) [2005 г., детектив, SATRip] DVO

Alfredovich

0 | 2

657.34 МБ

В этой теме нет новых непрочитанных сообщений. Стиратель / Eraser [Боевик, триллер, драма, криминал, детектив, 1996] BDRip 1080p, Dub+2Mvo+Avo+Sub

salma3

27 | 6

13.95 ГБ

В этой теме нет новых непрочитанных сообщений. Писатели свободы / Freedom Writers [драма, криминал, биография, 2007] BDRip 1080p, 2Mvo+Sub

salma3

50 | 6

11.4 ГБ

В этой теме нет новых непрочитанных сообщений. Американская история преступлений / The People v. O.J. Simpson: American Crime Story [1 сезон: 1-2 серия из 10] [Драма, криминал, биография, 2016] WEB-DLRip [NewStudio]

Dracon

77 | 37

1.2 ГБ

В этой теме нет новых непрочитанных сообщений. Выкуп / Ransom [триллер, криминал, 1996] BDRip 720p, Dub+2Mvo+Sub

salma3

95 | 10

4.37 ГБ

В этой теме нет новых непрочитанных сообщений. В поисках приключений / The Quest [боевик, приключения, 1996] BDRip 720, 2Mvo+Dvo+Sub

salma3

19 | 4

3 ГБ


Начать новую тему Ответить на тему  [ 1 сообщение ] 




Для Мосгорсуда, Роскомнадзора и рекламодателей:: mosgorsud-torrent[собачка]yandex.ru