Торрент файл
скачать торрент магнет ссылка Добавлен: 20 фев 2014, 17:09
Размер: 1.46 ГБ
Сидеров: 110
Личеров: 8
Статус: (salma3)
Автор

СообщениеДобавлено: 20 фев 2014, 17:09 

Не в сети
Супермодератор
Аватара пользователя
Дата регистрации:
15 фев 2012, 16:44
Возраст: 27
Спасибо: 5954 / 2115
Сообщения: 28512
Связной 13 / Filière 13

Год выпуска: 2010
Жанр: Комедия
Режиссер: Патрик Уард

В ролях: Клод Леголт, Гийом Лемай-Тивьерж, Пол Дусе, Жан Пьер Бержерон, Мари Турджеон, Аник Джин, Андре Сов, Лорен Пакуин, Шарлин Ройер
Описание: Томаса, полицейского из Мореаля, измучали головные боли. Пошли срывы. У его босса, Бенито, свои неприятности - его бросила жена. Что бы избежать провалов в работе, Бенито переводит Томаса на спокойное задание. Теперь Томас должен заниматься слежкой, его объект - пожилая дама, мать известного преступника. В напарники ему определяют офицера по связям с общественностью, Жана-Франсуа, такого же бедолагу впавшего в депрессию. Одуревшие от однообразности слежки, полицейские решают слегка выйти за границы своего задания.



Страна: Канада
Продолжительность: 01:47:18
Перевод: Авторский [Белов]
Оригинальная аудиодорожка: Французская

Файл
Качество: DVDRip
Формат файла: AVI
Видео кодек: XviD
Аудио кодек: AC3
Видео: XviD, 1049 Кбит/с, 704х304
Аудио: Русский, французкий (АС3 6 ch, 448 Кбит/с)

Общее
Полное имя : D:залитьСвязной 13.avi
Формат : AVI
Формат/Информация : Audio Video Interleave
Размер файла : 1,46 Гбайт
Продолжительность : 1 ч. 47 м.
Общий поток : 1954 Кбит/сек
Программа кодирования : VirtualDubMod 1.5.10.2 (build 2540/release)
Библиотека кодирования : VirtualDubMod build 2540/release

Видео
Идентификатор : 0
Формат : MPEG-4 Visual
Профиль формата : Advanced Simple@L5
Параметр BVOP формата : 1
Параметр QPel формата : Нет
Параметр GMC формата : Без точки перехода
Параметр матрицы формата : Default (H.263)
Идентификатор кодека : XVID
Идентификатор кодека/Подсказка : XviD
Продолжительность : 1 ч. 47 м.
Битрейт : 1044 Кбит/сек
Ширина : 704 пикселя
Высота : 304 пикселя
Соотношение сторон : 2,35:1
Частота кадров : 23,976 кадра/сек
Цветовое пространство : YUV
Субдискретизация насыщенности : 4:2:0
Битовая глубина : 8 бит
Тип развёртки : Прогрессивная
Метод сжатия : С потерями
Бит/(Пиксели*Кадры) : 0.203
Размер потока : 801 Мбайт (53%)
Библиотека кодирования : XviD 1.2.1 (UTC 2008-12-04)

Аудио #1
Идентификатор : 1
Формат : AC-3
Формат/Информация : Audio Coding 3
Расширение режима : CM (complete main)
Параметр Endianness формата : Big
Идентификатор кодека : 2000
Продолжительность : 1 ч. 47 м.
Вид битрейта : Постоянный
Битрейт : 448 Кбит/сек
Каналы : 6 каналов
Расположение каналов : Front: L C R, Side: L R, LFE
Частота : 48,0 КГц
Битовая глубина : 16 бит
Метод сжатия : С потерями
Размер потока : 344 Мбайт (23%)
Выравнивание : Разделение по промежуткам
Продолжительность промежутка : 42 мс. (1,00 видеокадр)
Время предзагрузки промежутка : 500 мс.

Аудио #2
Идентификатор : 2
Формат : AC-3
Формат/Информация : Audio Coding 3
Расширение режима : CM (complete main)
Параметр Endianness формата : Big
Идентификатор кодека : 2000
Продолжительность : 1 ч. 47 м.
Вид битрейта : Постоянный
Битрейт : 448 Кбит/сек
Каналы : 6 каналов
Расположение каналов : Front: L C R, Side: L R, LFE
Частота : 48,0 КГц
Битовая глубина : 16 бит
Метод сжатия : С потерями
Размер потока : 344 Мбайт (23%)
Выравнивание : Разделение по промежуткам
Продолжительность промежутка : 42 мс. (1,00 видеокадр)
Время предзагрузки промежутка : 500 мс.

Автор рипа:


_________________
Проголосуй за трекер Открытый торрент трекер - RUS-MEDIA.ORG




реклама партнёра


Вернуться к началу
 Профиль Отправить личное сообщение  
 
   Похожие торренты   Автор   Торрент   Размер 
В этой теме нет новых непрочитанных сообщений. Азиатский связной / Te jing ji xian feng [криминал, приключения, 1995] DVDRip, Avo

salma3

52 | 5

1.37 ГБ

В этой теме нет новых непрочитанных сообщений. Азиатский связной / The Asian Connection [боевик, 2016] WEB-DLRip, Mvo

salma3

1755 | 130

1.37 ГБ

В этой теме нет новых непрочитанных сообщений. Азиатский связной / The Asian Connection [боевик, 2016] WEB-DL 720p, Mvo

salma3

410 | 48

2.54 ГБ

В этой теме нет новых непрочитанных сообщений. S.T.A.L.K.E.R.: Call of Pripyat - Связной (2.0) [Action, Shooter, 3D, 1st Person, 2015] [Repack]

Sykre

1 | 0

3.45 ГБ

В этой теме нет новых непрочитанных сообщений. Веселый призрак / Living Will... [комедия, 2010] DVDRip, Dvo

salma3

35 | 5

1.55 ГБ

В этой теме нет новых непрочитанных сообщений. Служить и защищать / Proteger & Servir [Комедия, криминал, 2010] DVDRip-AVC, Mvo

salma3

62 | 18

1.45 ГБ

В этой теме нет новых непрочитанных сообщений. Правда о мужчинах / Sandheden om mænd (Николай Арсель) [2010, драма, комедия, DVDRip] Sub

Nickolas3435

20 | 6

1.08 ГБ


Начать новую тему Ответить на тему  [ 1 сообщение ] 




Для Мосгорсуда, Роскомнадзора и рекламодателей:: mosgorsud-torrent[собачка]yandex.ru