Торрент файл
скачать торрент магнет ссылка Добавлен: 29 май 2014, 14:12
Размер: 5.89 ГБ
Сидеров: 41
Личеров: 4
Статус: (salma3)
Автор

СообщениеДобавлено: 17 фев 2014, 20:01 

Не в сети
Зам. Админа
Аватара пользователя
Дата регистрации:
02 дек 2010, 12:39
Спасибо: 12623 / 214
Сообщения: 28012
Год выпуска: 2013
Жанр: Триллер
Режиссер: Дуглас Арниокоски
В ролях: Пас де ла Уэрта, Катрина Боуден, Корбин Блю, Джадд Нельсон, Борис Коджо, Адам Хершман, Найси Нэш, Кэтлин Тёрнер, Майкл Эклунд, Мелани Скорфано

О фильме:
Днём Эбби Рассел является примерной медсестрой, которой люди доверяют свою жизнь. А ночью она использует собственную сексуальность, соблазняя и обманывая людей, чтобы затем убить их с особой жестокостью… Младшая медсестра начинает подозревать Эбби в преступлениях и пытается вывести негодяйку на чистую воду.



Выпущено: США, Lions Gate Entertainment, Lionsgate
Продолжительность: 01:23:54
Озвучивание1: Дублированное [iTunes Russia]
Озвучивание2: Профессиональное (многоголосое) [BaibaKo]
Озвучивание3: Любительское (одноголосое) [Акалит]
Озвучивание4: Любительское (многоголосое) [den904] & [DeadSno] и [Васька Куролесов]

Файл
Формат: MKV
Качество: BDRip 720p [HDWing]
Видео: 7200 kb/s, 1280x532
Аудио:
Russian [iTunes Russia]: AC3, 384 kb/s (6 ch)
Russian [BaibaKo]: AC3, 384 kb/s (6 ch)
Russian [Акалит]: AC3, 384 kb/s (6 ch)
Russian [den904] & [DeadSno] и Васька Куролесов]: AC3, 192 kb/s (2 ch)
English: DTS, 1510 (6 ch)
Субтитры: English

Общее
Nurse.2013.Blu.Ray.720p.CINEMANIA.mkv
Формат : Matroska
Версия формата : Version 4 / Version 2
Размер файла : 5,89 Гбайт
Продолжительность : 1 ч. 23 м.
Общий поток : 10,0 Мбит/сек
Название фильма : Release Group CINEMANIA
Дата кодирования : UTC 2014-05-29 07:56:57
Программа кодирования : mkvmerge v6.9.1 ('Blue Panther') 64bit built on Apr 18 2014 18:23:38
Библиотека кодирования : libebml v1.3.0 + libmatroska v1.4.1

Видео
Идентификатор : 1
Формат : AVC
Формат/Информация : Advanced Video Codec
Профиль формата : High@L4.1
Параметр CABAC формата : Да
Параметр ReFrames формата : 12 кадров
Идентификатор кодека : V_MPEG4/ISO/AVC
Продолжительность : 1 ч. 23 м.
Битрейт : 7200 Кбит/сек
Ширина : 1280 пикселей
Высота : 532 пикселя
Соотношение сторон : 2,40:1
Режим частоты кадров : Постоянный
Частота кадров : 23,976 кадра/сек
Цветовое пространство : YUV
Субдискретизация насыщенности : 4:2:0
Битовая глубина : 8 бит
Тип развёртки : Прогрессивная
Бит/(Пиксели*Кадры) : 0.441
Размер потока : 4,10 Гбайт (70%)
Заголовок : Release Group CINEMANIA
Библиотека кодирования : x264 core 142 r2409+42 04be48a tMod [8-bit@4:2:0 X86_64]
Настройки программы : cabac=1 / ref=12 / deblock=1:-3:-2 / analyse=0x3:0x113 / me=umh / subme=11 / psy=1 / fade_compensate=0.00 / psy_rd=1.10:0.00 / mixed_ref=1 / me_range=32 / chroma_me=1 / trellis=2 / 8x8dct=1 / cqm=0 / deadzone=21,11 / fast_pskip=0 / chroma_qp_offset=-2 / threads=18 / lookahead_threads=3 / sliced_threads=0 / nr=0 / decimate=0 / interlaced=0 / bluray_compat=0 / constrained_intra=0 / fgo=0 / bframes=8 / b_pyramid=2 / b_adapt=2 / b_bias=0 / direct=3 / weightb=1 / open_gop=0 / weightp=2 / keyint=240 / keyint_min=24 / scenecut=40 / intra_refresh=0 / rc=2pass / mbtree=0 / bitrate=7200 / ratetol=1.0 / qcomp=0.70 / qpmin=0:0:0 / qpmax=69:69:69 / qpstep=4 / cplxblur=20.0 / qblur=0.5 / ip_ratio=1.20 / pb_ratio=1.20 / aq=4:0.80 / aq-sensitivity=10.00 / aq-factor=1.00:1.00:1.00 / aq2=0 / aq3=0
Язык : English
Default : Да
Forced : Нет

Аудио #1
Идентификатор : 2
Формат : AC-3
Формат/Информация : Audio Coding 3
Расширение режима : CM (complete main)
Параметр Endianness формата : Big
Идентификатор кодека : A_AC3
Продолжительность : 1 ч. 23 м.
Вид битрейта : Постоянный
Битрейт : 384 Кбит/сек
Каналы : 6 каналов
Расположение каналов : Front: L C R, Side: L R, LFE
Частота : 48,0 КГц
Битовая глубина : 16 бит
Метод сжатия : С потерями
Размер потока : 230 Мбайт (4%)
Заголовок : Дубляж (Лицензия)
Язык : Russian
Default : Да
Forced : Да

Аудио #2
Идентификатор : 3
Формат : AC-3
Формат/Информация : Audio Coding 3
Расширение режима : CM (complete main)
Параметр Endianness формата : Big
Идентификатор кодека : A_AC3
Продолжительность : 1 ч. 23 м.
Вид битрейта : Постоянный
Битрейт : 384 Кбит/сек
Каналы : 6 каналов
Расположение каналов : Front: L C R, Side: L R, LFE
Частота : 48,0 КГц
Битовая глубина : 16 бит
Метод сжатия : С потерями
Размер потока : 230 Мбайт (4%)
Заголовок : BaibaKo
Язык : Russian
Default : Нет
Forced : Нет

Аудио #3
Идентификатор : 4
Формат : AC-3
Формат/Информация : Audio Coding 3
Расширение режима : CM (complete main)
Параметр Endianness формата : Big
Идентификатор кодека : A_AC3
Продолжительность : 1 ч. 23 м.
Вид битрейта : Постоянный
Битрейт : 384 Кбит/сек
Каналы : 6 каналов
Расположение каналов : Front: L C R, Side: L R, LFE
Частота : 48,0 КГц
Битовая глубина : 16 бит
Метод сжатия : С потерями
Размер потока : 230 Мбайт (4%)
Заголовок : Акалит
Язык : Russian
Default : Нет
Forced : Нет

Аудио #4
Идентификатор : 5
Формат : AC-3
Формат/Информация : Audio Coding 3
Расширение режима : CM (complete main)
Параметр Endianness формата : Big
Идентификатор кодека : A_AC3
Продолжительность : 1 ч. 23 м.
Вид битрейта : Постоянный
Битрейт : 192 Кбит/сек
Каналы : 2 канала
Расположение каналов : Front: L R
Частота : 48,0 КГц
Битовая глубина : 16 бит
Метод сжатия : С потерями
Размер потока : 115 Мбайт (2%)
Заголовок : Влад , Снежинка и Куролес
Язык : Russian
Default : Нет
Forced : Нет

Аудио #5
Идентификатор : 6
Формат : DTS
Формат/Информация : Digital Theater Systems
Режим : 16
Параметр Endianness формата : Big
Идентификатор кодека : A_DTS
Продолжительность : 1 ч. 23 м.
Вид битрейта : Постоянный
Битрейт : 1509 Кбит/сек
Каналы : 6 каналов
Расположение каналов : Front: L C R, Side: L R, LFE
Частота : 48,0 КГц
Битовая глубина : 24 бит
Метод сжатия : С потерями
Размер потока : 906 Мбайт (15%)
Язык : English
Default : Нет
Forced : Нет

Текст
Идентификатор : 7
Формат : UTF-8
Идентификатор кодека : S_TEXT/UTF8
Идентификатор кодека/Информация : UTF-8 Plain Text
Язык : English
Default : Нет
Forced : Нет

Релиз группы:




реклама партнёра


Вернуться к началу
 Профиль  
 
   Похожие торренты   Автор   Торрент   Размер 
В этой теме нет новых непрочитанных сообщений. Выкуп / Ransom [триллер, криминал, 1996] BDRip 720p, Dub+2Mvo+Sub

salma3

95 | 10

4.37 ГБ

В этой теме нет новых непрочитанных сообщений. Адвокат для убийцы / Criminal Law [триллер, криминал. 1988] BDRip 720p, 2Mvo+Dvo+Sub

salma3

16 | 3

8.57 ГБ

В этой теме нет новых непрочитанных сообщений. Отчаянный / Desperado [боевик, триллер, криминал, 1995] BDRip 720p, 2Mvo+3Avo+Sub

salma3

9 | 7

6.8 ГБ

В этой теме нет новых непрочитанных сообщений. Дик Трэйси / Dick Tracy [боевик, триллер, мелодрама, 1990] BDRip 720p, Dub+2Mvo+Avo+Sub

salma3

32 | 4

6.26 ГБ

В этой теме нет новых непрочитанных сообщений. Клетка / The Cell [фантастика, триллер, драма, криминал, 2000] BDRip 720p, Dub+2Mvo+Avo+Sub

salma3

27 | 6

5.72 ГБ

В этой теме нет новых непрочитанных сообщений. Вся президентская рать / All the President's Men [триллер, драма, детектив, история, 1976] BDRip 720p, 2Mvo+Dvo+Avo+Sub

salma3

45 | 4

8.56 ГБ

В этой теме нет новых непрочитанных сообщений. 15 минут славы / 15 Minutes [боевик, триллер, драма, криминал, 2001] BDRip 720p, Dub+2Mvo+Dvo+Sub

salma3

109 | 11

5.76 ГБ


СообщениеДобавлено: 29 май 2014, 14:12 

Не в сети
Супермодератор
Аватара пользователя
Дата регистрации:
15 фев 2012, 16:44
Возраст: 28
Спасибо: 6589 / 2145
Сообщения: 44145
:)

_________________
Проголосуй за трекер Открытый торрент трекер - RUS-MEDIA.ORG

Проголосуй Открытый торрент трекер - RUS-MEDIA.ORG


Вернуться к началу
 Профиль Отправить личное сообщение  
 
Начать новую тему Ответить на тему  [ Сообщений: 2 ] 




Для Мосгорсуда, Роскомнадзора и рекламодателей:: mosgorsud-torrent[собачка]yandex.ru