Торрент файл
скачать торрент магнет ссылка Добавлен: 17 фев 2014, 11:06
Размер: 1.45 ГБ
Сидеров: 955
Личеров: 16
Статус: (salma3)
Автор

СообщениеДобавлено: 17 фев 2014, 11:06 

Не в сети
Зам. Админа
Аватара пользователя
Дата регистрации:
02 дек 2010, 12:39
Спасибо: 12461 / 214
Сообщения: 27968
Год выпуска: 2013
Страна: Канада
Жанр: комедия

Продолжительность: 01:30:15


Перевод: Любительский (одноголосый)(qwerty)

Режиссер: Джонатан Собол / Jonathan Sobol

В ролях:

Курт Рассел (Crunch Calhoun), Джей Барушель, Кэтрин Уинник (Lola), Крис Диамантополос, Кеннет Уэлш, Джейсон Джонс, Теренс Стэмп, Мэтт Диллон (Nicky Calhoun), Девон Бостик (Ponch), Керин Двайер (Ginger), Юджин Липински, Джо Пинг (Carmen)


Описание: Фильм рассказывает о байкере-сорвиголове, специализирующемся на краже произведений искусства. Он уже было собрался завязать с преступным прошлым, но все-таки не находит в себе силы отказаться от осуществления еще одной очень заманчивой кражи вместе со своим неблагонадежным братцем. Все в итоге идет наперекосяк, поскольку оказывается, что у каждого из братьев свой план.


MPAA: R - Лицам до 17 лет обязательно присутствие взрослого


Качество: WEB-DLRip
Контейнер: AVI
Видео: XviD, 688x288 (2.40:1), 2103 kbps, 23,976 fps, 0,443 bpp
Аудио: AC3 / 2.0 / 44 kHz / 192 kbps / 16 bit



General
Complete name : E:my.ripThe.Art.of.the.Steal.2013.WEB-DLRip.by.Дядя_Лёша.avi
Format : AVI
Format/Info : Audio Video Interleave
File size : 1.45 GiB
Duration : 1h 30mn
Overall bit rate : 2 305 Kbps
Writing application : VirtualDubMod 1.5.10.3 | http://www.virtualdub-fr.org || (build 2550/release)
Writing library : VirtualDubMod build 2550/release

Video
ID : 0
Format : MPEG-4 Visual
Format profile : Advanced Simple@L5
Format settings, BVOP : 1
Format settings, QPel : No
Format settings, GMC : No warppoints
Format settings, Matrix : Custom
Codec ID : XVID
Codec ID/Hint : XviD
Duration : 1h 30mn
Bit rate : 2 103 Kbps
Width : 688 pixels
Height : 288 pixels
Display aspect ratio : 2.40:1
Frame rate : 23.976 fps
Color space : YUV
Chroma subsampling : 4:2:0
Bit depth : 8 bits
Scan type : Progressive
Compression mode : Lossy
Bits/(Pixel*Frame) : 0.443
Stream size : 1.33 GiB (91%)
Writing library : XviD 73

Audio
ID : 1
Format : AC-3
Format/Info : Audio Coding 3
Mode extension : CM (complete main)
Codec ID : 2000
Duration : 1h 30mn
Bit rate mode : Constant
Bit rate : 192 Kbps
Channel(s) : 2 channels
Channel positions : Front: L R
Sampling rate : 44.1 KHz
Bit depth : 16 bits
Compression mode : Lossy
Stream size : 124 MiB (8%)
Alignment : Split accross interleaves
Interleave, duration : 42 ms (1.00 video frame)
Interleave, preload duration : 500 ms




реклама партнёра


Вернуться к началу
 Профиль  
 
   Похожие торренты   Автор   Торрент   Размер 
В этой теме нет новых непрочитанных сообщений. Черные метки / The Art of the Steal [Комедия, Криминал, 2013] WEB-DLRip 720p, avo

Dracon

0 | 2

2.99 ГБ

В этой теме нет новых непрочитанных сообщений. Черные метки / The Art of the Steal [Комедия, Криминал, 2013] HDRip, Mvo [iTunes]

Dracon

1268 | 20

1.37 ГБ

В этой теме нет новых непрочитанных сообщений. Черные метки / The Art of the Steal [Комедия, Криминал, 2013] BDRip 720p, Avo

Dracon

118 | 5

3.86 ГБ

В этой теме нет новых непрочитанных сообщений. Черные метки / The Art of the Steal [Комедия, Криминал, 2013] BDRip 720p, Mvo [iTunes]

Dracon

290 | 7

3.74 ГБ

В этой теме нет новых непрочитанных сообщений. Черные метки / The Art of the Steal [Комедия, Криминал, 2013] BDRip 1080p, Mvo [iTunes]

Dracon

1 | 2

6.76 ГБ

В этой теме нет новых непрочитанных сообщений. Черные метки / The Art of the Steal [Комедия, Криминал, 2013] BDRemux 1080p, Mvo [iTunes]

Dracon

0 | 2

17.79 ГБ

В этой теме нет новых непрочитанных сообщений. Черные метки / The Art of the Steal [Комедия, Криминал, 2013] BDRip 720p, Mvo [Лицензия]

Dracon

2 | 2

3.74 ГБ


Начать новую тему Ответить на тему  [ 1 сообщение ] 




Для Мосгорсуда, Роскомнадзора и рекламодателей:: mosgorsud-torrent[собачка]yandex.ru