Торрент файл
скачать торрент магнет ссылка Добавлен: 15 фев 2014, 15:00
Размер: 1.46 ГБ
Сидеров: 87
Личеров: 3
Статус: (salma3)
Автор

СообщениеДобавлено: 15 фев 2014, 15:00 

Не в сети
Супермодератор
Аватара пользователя
Дата регистрации:
15 фев 2012, 16:44
Возраст: 28
Спасибо: 6563 / 2130
Сообщения: 43556
Ангар 18 / Hangar 18

Год выпуска: 1980
Жанр: фантастика, боевик, триллер, биография
Режиссер: Джеймс Л. Конуэй / James L. Conway

В ролях: Гари Коллинз, Роберт Вон, Джеймс Хэмптон, Филип Эбботт, Джозеф Кампанелла, Памела Беллвуд, Том Хэллик, Стивен Китс, Уильям Шэллерт, Дэррен МакГэвин...

Роли дублировали: Игорь Окрепилов, Александр Демьяненко, Вячеслав Захаров, Юрий Дедович, Владимир Татосов...

Описание: Во время запуска спутника с космического челнока NASA происходит катастрофа, в результате которой погибает один из астронавтов. Как потом выясняется, причиной взрыва становится столкновение спутника с НЛО. Неопознанный объект совершает аварийную посадку на Земле и попадает в руки спецслужб правительства. Небольшая группа военных и политиков, опасающихся ненужной и рискованной шумихи вокруг этого ЧП накануне президентских выборов, делают все, чтобы сохранить происшествие в тайне. Вернувшихся на землю астронавтов изолируют, а НЛО отправляют для исследований на военную базу и прячут в ангаре под №18. Но друзья погибшего астронавта пытаются узнать правду о загадочном объекте, встреченном на орбите, и не хотят сидеть сложа руки, и предпринимают собственное и весьма рискованное расследование...
В 80-х годах этот фильм демонстрировался в кинотеатрах по всему СССР и снискал большую популярность у зрителей.



Страна: США / Sunn Classic Pictures Inc.
Продолжительность: 01:37:30
Перевод: Профессиональный (дублированный) [Советский дубляж] (со вставками двухголосого закадрового)

Файл
Качество: BDRip
Формат файла: AVI
Видео кодек: XviD
Аудио кодек: AC3
Аудио кодек: AC30 (16:9), 23.976 fps, XviD ~ 1937 kbps avg, 0.281 bit/pixel
Аудио: 48 kHz, Dolby AC3, 2 ch, 192 kbps, [русский дублированный]

Общее
Полное имя : Angar.18.1980.D.BDRip.1.46GB_[New-Team]_by_avproh.avi
Формат : AVI
Формат/Информация : Audio Video Interleave
Размер файла : 1,46 Гбайт
Продолжительность : 1 ч. 37 м.
Общий поток : 2139 Кбит/сек
Программа кодирования : VirtualDubModRus 1.5.10.2 (build 2542/release)
Библиотека кодирования : VirtualDubMod build 2542/release

Видео
Идентификатор : 0
Формат : MPEG-4 Visual
Профиль формата : Advanced Simple@L5
Параметр BVOP формата : 1
Параметр QPel формата : Нет
Параметр GMC формата : Без точки перехода
Параметр матрицы формата : Выборочная
Идентификатор кодека : XVID
Идентификатор кодека/Подсказка : XviD
Продолжительность : 1 ч. 37 м.
Битрейт : 1937 Кбит/сек
Ширина : 720 пикселей
Высота : 400 пикселей
Соотношение сторон : 16:9
Частота кадров : 23,976 кадра/сек
Цветовое пространство : YUV
Субдискретизация насыщенности : 4:2:0
Битовая глубина : 8 бит
Тип развёртки : Прогрессивная
Метод сжатия : С потерями
Бит/(Пиксели*Кадры) : 0.281
Размер потока : 1,32 Гбайт (91%)
Библиотека кодирования : XviD 73

Аудио
Идентификатор : 1
Формат : AC-3
Формат/Информация : Audio Coding 3
Расширение режима : CM (complete main)
Параметр Endianness формата : Big
Идентификатор кодека : 2000
Продолжительность : 1 ч. 37 м.
Вид битрейта : Постоянный
Битрейт : 192 Кбит/сек
Каналы : 2 канала
Расположение каналов : Front: L R
Частота : 48,0 КГц
Битовая глубина : 16 бит
Метод сжатия : С потерями
Размер потока : 134 Мбайт (9%)
Выравнивание : Разделение по промежуткам
Продолжительность промежутка : 42 мс. (1,00 видеокадр)
Время предзагрузки промежутка : 500 мс.


Раздача от:


_________________
Проголосуй за трекер Открытый торрент трекер - RUS-MEDIA.ORG

Проголосуй Открытый торрент трекер - RUS-MEDIA.ORG



реклама партнёра


Вернуться к началу
 Профиль Отправить личное сообщение  
 
   Похожие торренты   Автор   Торрент   Размер 
В этой теме нет новых непрочитанных сообщений. Ангар 18 / Hangar 18 [Фантастика, боевик, детектив, 1980] BDRip-AVC, Avo

salma3

19 | 0

744.61 МБ

В этой теме нет новых непрочитанных сообщений. Ангар 10 / Hangar 10 [ужасы, фантастика, триллер, 2014] WEB-DLRip, Avo

salma3

336 | 20

1.49 ГБ

В этой теме нет новых непрочитанных сообщений. Ангар 10 / Hangar 10 (Дэниэл Симпсон) [ужасы, фантастика, триллер, 2014] WEB-DLRip 720p, avo

Dracon

23 | 4

2.92 ГБ

В этой теме нет новых непрочитанных сообщений. Рукопашный бой / Tapped Out (Аллан Ангар) [боевик, драма, спорт, 2014] BDRip 720p, Mvo

Dracon

421 | 22

4.51 ГБ

В этой теме нет новых непрочитанных сообщений. Рукопашный бой / Tapped Out (Аллан Ангар) [боевик, драма, спорт, 2014] BDRip 720p, dvo

Dracon

106 | 5

2.66 ГБ

В этой теме нет новых непрочитанных сообщений. Другие ипостаси / Altered States [ужасы, фантастика, триллер, 1980] BDRip 720p, Dvo+Avo+Sub

salma3

5 | 2

4.28 ГБ

В этой теме нет новых непрочитанных сообщений. Трюкач / The Stunt Man [боевик, триллер, драма, 1980] BDRip 720p, Dub

salma3

39 | 12

5.76 ГБ


Начать новую тему Ответить на тему  [ 1 сообщение ] 




Для Мосгорсуда, Роскомнадзора и рекламодателей:: mosgorsud-torrent[собачка]yandex.ru