Торрент файл
скачать торрент магнет ссылка Добавлен: 12 фев 2014, 18:06
Размер: 1.54 ГБ
Сидеров: 17
Личеров: 2
Статус: (salma3)
Автор

СообщениеДобавлено: 12 фев 2014, 18:06 

Не в сети
Супермодератор
Аватара пользователя
Дата регистрации:
15 фев 2012, 16:44
Возраст: 27
Спасибо: 5848 / 2114
Сообщения: 26948
Дракон-волк / Dragonwolf

Год выхода: 2013
Жанр: боевик
Режиссер: Раймунд Хубер

В ролях: Патрик Тан, Йохан Кирстен, Маша Поливка, Дэвид Уинтерс, Гук Шрисават, Стивен Томас, Бонни Целлербах, Сунанта Юсагун, Джанисса Чароенрач, Кинсент Кинн, Брахим Ачаббахе, Расселл Джеффри Бэнкс, Дэвид Буэно, Антон Калиниченко

О фильме: В городе под названием Котёл Дьявола царит разврат и насилие и выжить в нём может лишь бездушный человек, владеющий смертоносными навыками. Двое свирепых юношей, не лишенных интеллекта, заработали себе славу наиболее умелых и безжалостных наёмных убийц. Этих двух братьев-киллеров боятся даже самые отъявленные преступники. Но в жизни братьев появляется загадочная женщина редкой красоты, которая ослепляет их сладкими обещаниями и стравливает друг с другом, в результате чего разгорается эпическая битва, грозящая уничтожить весь город.



Выпущено: Таиланд / Motionpictures
Продолжительность: 02:01:28
Озвучивание: Профессиональное (многоголосное) [НТВ+]

Файл
Качество: HDRip-AVC
Формат файла: AVC
Видео кодек: H264
Аудио кодек: AC3
Видео: MPEG-4 AVC, 1619 Кбит/с, 1024x550
Звук: AC3, 2 ch, 192 Кбит/с

General
Unique ID : 183592512838866233998192135962975419707 (0x8A1EA1BDEAFAF8259B6417642F323D3B)
Complete name : C:Dragonwolf.2013.P.HDRip.AVC.ExKinoRay.mkv
Format : Matroska
Format version : Version 2
File size : 1.54 GiB
Duration : 2h 1mn
Overall bit rate : 1 812 Kbps
Movie name : ExKinoRay
Encoded date : UTC 2014-02-12 11:50:45
Writing application : mkvmerge v4.9.1 ('Ich will') built on Jul 11 2011 23:53:15
Writing library : libebml v1.2.1 + libmatroska v1.1.1

Video
ID : 1
Format : AVC
Format/Info : Advanced Video Codec
Format profile : High@L4.1
Format settings, CABAC : Yes
Format settings, ReFrames : 8 frames
Codec ID : V_MPEG4/ISO/AVC
Duration : 2h 1mn
Bit rate : 1 619 Kbps
Width : 1 024 pixels
Height : 550 pixels
Display aspect ratio : 1.85:1
Frame rate mode : Constant
Frame rate : 23.976 fps
Color space : YUV
Chroma subsampling : 4:2:0
Bit depth : 8 bits
Scan type : Progressive
Bits/(Pixel*Frame) : 0.120
Stream size : 1.34 GiB (87%)
Title : Enigma-Vladislav71
Writing library : x264 core 116 r2044 392e762
Encoding settings : cabac=1 / ref=8 / deblock=1:-2:-2 / analyse=0x3:0x113 / me=umh / subme=9 / psy=1 / psy_rd=1.00:0.20 / mixed_ref=1 / me_range=32 / chroma_me=1 / trellis=2 / 8x8dct=1 / cqm=0 / deadzone=21,11 / fast_pskip=0 / chroma_qp_offset=-3 / threads=12 / sliced_threads=0 / nr=0 / decimate=0 / interlaced=0 / bluray_compat=0 / constrained_intra=0 / bframes=8 / b_pyramid=2 / b_adapt=2 / b_bias=0 / direct=3 / weightb=1 / open_gop=0 / weightp=2 / keyint=240 / keyint_min=23 / scenecut=40 / intra_refresh=0 / rc_lookahead=50 / rc=2pass / mbtree=1 / bitrate=1619 / ratetol=1.0 / qcomp=0.60 / qpmin=0 / qpmax=69 / qpstep=4 / cplxblur=20.0 / qblur=0.5 / ip_ratio=1.40 / aq=1:1.00
Language : English
Default : Yes
Forced : No

Audio
ID : 2
Format : AC-3
Format/Info : Audio Coding 3
Mode extension : CM (complete main)
Format settings, Endianness : Big
Codec ID : A_AC3
Duration : 2h 1mn
Bit rate mode : Constant
Bit rate : 192 Kbps
Channel(s) : 2 channels
Channel positions : Front: L R
Sampling rate : 48.0 KHz
Bit depth : 16 bits
Compression mode : Lossy
Stream size : 167 MiB (11%)
Title : НТВ+
Language : Russian
Default : Yes
Forced : No



Релиз от: Авторы релиза:


_________________
Проголосуй за трекер Открытый торрент трекер - RUS-MEDIA.ORG




реклама партнёра


Вернуться к началу
 Профиль Отправить личное сообщение  
 
   Похожие торренты   Автор   Торрент   Размер 
В этой теме нет новых непрочитанных сообщений. Воздушный волк / Небесный волк / Airwolf [S01-03] [Боевик, приключения, 1984-1986] BDRip, Mvo

salma3

17 | 26

40.42 ГБ

В этой теме нет новых непрочитанных сообщений. Воздушный волк / Небесный волк / Airwolf [S01-03] [Боевик, приключения, 1984-1986] BDRip 720p, Mvo

salma3

4 | 12

124.54 ГБ

В этой теме нет новых непрочитанных сообщений. Волк / Wolf (Jim Taihuttu) [2013, триллер, драма, криминал, HDRip] AVO

Nickolas3435

15 | 2

1.37 ГБ

В этой теме нет новых непрочитанных сообщений. Последний дракон / The Last Dragon [драма, комедия, музыка, боевик, 1985] HDRip-AVC, Dvo

salma3

21 | 1

1.45 ГБ

В этой теме нет новых непрочитанных сообщений. Злой серый волк  / Big Bad wolf (Пол Морелл) [Ужасы, триллер, 2013] HDRip, dvo

Dracon

4 | 4

1.37 ГБ

В этой теме нет новых непрочитанных сообщений. Волк с Уолл-стрит / The Wolf of Wall Street [драма, комедия, криминал, биография, 2013] HDRip-AVC, Dub+Sub

Dracon

0 | 6

2.3 ГБ

В этой теме нет новых непрочитанных сообщений. Волк с Уолл-стрит / The Wolf of Wall Street [драма, комедия, криминал, биография, 2013] HDRip, Dub [лицензия]

Dracon

13 | 2

2.05 ГБ


Начать новую тему Ответить на тему  [ 1 сообщение ] 




Для Мосгорсуда, Роскомнадзора и рекламодателей:: mosgorsud-torrent[собачка]yandex.ru