Торрент файл
скачать торрент магнет ссылка Добавлен: 12 фев 2014, 17:58
Размер: 1.26 ГБ
Сидеров: 114
Личеров: 18
Статус: (salma3)
Автор

СообщениеДобавлено: 12 фев 2014, 17:58 

Не в сети
Супермодератор
Аватара пользователя
Дата регистрации:
15 фев 2012, 16:44
Возраст: 27
Спасибо: 5146 / 2090
Сообщения: 17514
Тренер / Coach

Год выхода: 2010
Жанр: Комедия, мелодрама, спорт
Режиссер: Уилл Фрирз

В ролях: Хью Дэнси, Джонатан Гутьеррез, Лиэн Балабан, Мэми Гаммер, Майкл Чернус, Бенджамин Уокер, Джиллиан Джейкобс, Дэвид Зайас, Билл Кэмп

О фильме:
Главный герой фильма «Тренер» (Coach) – Ник застрял в вечной юности: ему уже около тридцати лет, он живет за счет доверительного фонда, не имеет работы и не несет какую-либо ответственность. Когда его девушка, Зои, внезапно бросает его и переезжает в Лос-Анджелес, Ник разрабатывает стратегию, чтобы вернуть ее: устроиться на работу тренером по футболу. При помощи лучшего игрока команды, Гектора, Нику удается воплотить свой план и стать тренером. Однако в реальности все оказывается не так просто.



Страна: США
Студия: Cold Fusion Media Group, Fugitive Films
Продолжительность: 01:23:11
Перевод: Профессиональный [двухголосый] [НТВ+]

Файл
Качество: HDTVRip
Формат файла: AVI
Видео кодек: XviD
Аудио кодек: AC3
Видео: 1910 Кбит/с, 720x400, 25.000 кадр/с
Звук: Русский (АС3, 2 ch, 256 Кбит/с)

Семпл

Общее
Полное имя : Trener.2010.HDTVRip.MediaClub.avi
Формат : AVI
Формат/Информация : Audio Video Interleave
Размер файла : 1,26 Гбайт
Продолжительность : 1 ч. 23 м.
Общий поток : 2176 Кбит/сек
Название фильма : MediaClub
Программа кодирования : VirtualDubMod 1.5.4.1 (build 2178/release)
Библиотека кодирования : VirtualDubMod build 2178/release

Видео
Идентификатор : 0
Формат : MPEG-4 Visual
Профиль формата : Advanced Simple@L5
Параметр BVOP формата : 2
Параметр QPel формата : Нет
Параметр GMC формата : Без точки перехода
Параметр матрицы формата : Default (MPEG)
Идентификатор кодека : XVID
Идентификатор кодека/Подсказка : XviD
Продолжительность : 1 ч. 23 м.
Битрейт : 1910 Кбит/сек
Ширина : 720 пикселей
Высота : 400 пикселей
Соотношение сторон : 16:9
Частота кадров : 25,000 кадров/сек
Цветовое пространство : YUV
Субдискретизация насыщенности : 4:2:0
Битовая глубина : 8 бит
Тип развёртки : Прогрессивная
Метод сжатия : С потерями
Бит/(Пиксели*Кадры) : 0.265
Размер потока : 1,11 Гбайт (88%)
Заголовок : MediaClub
Библиотека кодирования : XviD 65

Аудио
Идентификатор : 1
Формат : AC-3
Формат/Информация : Audio Coding 3
Расширение режима : CM (complete main)
Параметр Endianness формата : Big
Идентификатор кодека : 2000
Продолжительность : 1 ч. 23 м.
Вид битрейта : Постоянный
Битрейт : 256 Кбит/сек
Каналы : 2 канала
Расположение каналов : Front: L R
Частота : 48,0 КГц
Битовая глубина : 16 бит
Метод сжатия : С потерями
Размер потока : 152 Мбайт (12%)
Выравнивание : Разделение по промежуткам
Продолжительность промежутка : 40 мс. (1,00 видеокадр)
Время предзагрузки промежутка : 500 мс.


Релиз от:


_________________



реклама партнёра


Вернуться к началу
 Профиль Отправить личное сообщение  
 
   Похожие торренты   Автор   Торрент   Размер 
В этой теме нет новых непрочитанных сообщений. Тренер / Coach [Комедия, мелодрама, спорт, 2010] HDTVRip 720p, Dvo [НТВ+]

salma3

11 | 4

3.28 ГБ

В этой теме нет новых непрочитанных сообщений. Тренер / McFarland, USA (Ники Каро) [драма, спорт, 2015] HDRip, Mvo

Dracon

0 | 0

1.46 ГБ

В этой теме нет новых непрочитанных сообщений. Тренер / McFarland, USA (Ники Каро) [драма, спорт, 2015] Blu-Ray 1080p, Mvo+Sub [Лицензия]

Dracon

56 | 12

38.21 ГБ

В этой теме нет новых непрочитанных сообщений. Тренер / McFarland, USA (Ники Каро) [драма, спорт, 2015] BDRip 1080p, Mvo [Лицензия]

Dracon

64 | 5

7.76 ГБ

В этой теме нет новых непрочитанных сообщений. Тренер / McFarland, USA (Ники Каро) [драма, спорт, 2015] BDRip 1080p, Mvo+Sub [Лицензия]

Dracon

480 | 37

9.88 ГБ

В этой теме нет новых непрочитанных сообщений. Тренер / McFarland, USA (Ники Каро) [драма, спорт, 2015] BDRip 720p, Mvo [Лицензия]

Dracon

88 | 6

6.85 ГБ

В этой теме нет новых непрочитанных сообщений. Тренер / McFarland, USA (Ники Каро) [драма, спорт, 2015] Blu-Ray Remux 1080p, Mvo+Sub [Лицензия]

Dracon

48 | 4

32.42 ГБ


Начать новую тему Ответить на тему  [ 1 сообщение ] 




Для Мосгорсуда, Роскомнадзора и рекламодателей:: mosgorsud-torrent[собачка]yandex.ru