Торрент файл
скачать торрент магнет ссылка Добавлен: 11 фев 2014, 21:41
Размер: 1.46 ГБ
Сидеров: 102
Личеров: 5
Статус: (salma3)
Автор

СообщениеДобавлено: 11 фев 2014, 21:41 

Не в сети
Зам. Админа
Аватара пользователя
Дата регистрации:
02 дек 2010, 12:39
Спасибо: 12461 / 214
Сообщения: 27968
Год выхода: 2013
Жанр: Комедия, драма, мелодрама
Режиссер: Руслан Акун
В ролях: Бектемир Мамаюсупов, Аида Тулебаева, Фредд Трим, Юлия Даурова, Сергей Смойлович, Алекс Мейзлин, Даниэль Бурканов

О фильме:
Фильм повествует о приключениях парня из Кыргызстана в удивительном мегаполисе! Сможет ли он обрести любовь, дружбу, счастье, успех на чужбине? Через что приходится пройти, чтобы добиться своей мечты? Отправьтесь вместе с «Салам, New York» в незабываемое путешествие!


Страна: Кыргызстан
Продолжительность: 02:11:49
Перевод: Не требуется

Кодек: XviD
Качество: WEB-DLRip
Видео: 704x352 (2.00:1), 25 fps, XviD build 50 ~1379 kbps avg, 0.22 bit/pixel
Звук: 48 kHz, AC3 Dolby Digital, 2/0 (L,R) ch, ~192.00 kbps avg
Субтитры: нет

Семпл

Общее
Полное имя : K:Салам, New York. 2013. WEB-DLRip.avi
Формат : AVI
Формат/Информация : Audio Video Interleave
Размер файла : 1,46 Гбайт
Продолжительность : 2 ч. 11 м.
Общий поток : 1581 Кбит/сек
Программа кодирования : VirtualDubMod 1.5.10.3 | http://www.virtualdub-fr.org || (build 2550/release)
Библиотека кодирования : VirtualDubMod build 2550/release

Видео
Идентификатор : 0
Формат : MPEG-4 Visual
Профиль формата : Advanced Simple@L5
Параметр BVOP формата : 2
Параметр QPel формата : Нет
Параметр GMC формата : Без точки перехода
Параметр матрицы формата : Выборочная
Идентификатор кодека : XVID
Идентификатор кодека/Подсказка : XviD
Продолжительность : 2 ч. 11 м.
Битрейт : 1379 Кбит/сек
Ширина : 704 пикс.
Высота : 352 пикс.
Соотношение сторон : 2,000
Частота кадров : 25,000 кадр/сек
Цветовое пространство : YUV
Подвыборка цветности : 4:2:0
Битовая глубина : 8 бит
Тип развёртки : Прогрессивная
Метод сжатия : С потерями
Бит/(Пиксели*Кадры) : 0.223
Размер потока : 1,27 Гбайт (87%)
Библиотека кодирования : XviD 1.2.1 (UTC 2008-12-04)

Аудио
Идентификатор : 1
Формат : AC-3
Формат/Информация : Audio Coding 3
Расширение режима : CM (complete main)
Идентификатор кодека : 2000
Продолжительность : 2 ч. 11 м.
Вид битрейта : Постоянный
Битрейт : 192 Кбит/сек
Каналы : 2 канала
Расположение каналов : Front: L R
Частота : 48,0 КГц
Битовая глубина : 16 бит
Метод сжатия : С потерями
Размер потока : 181 Мбайт (12%)
Выравнивание : Разделение по промежуткам
Продолжительность промежутка : 40 мс. (1,00 видеокадр)
Время предзагрузки промежутка : 500 ms




реклама партнёра


Вернуться к началу
 Профиль  
 
   Похожие торренты   Автор   Торрент   Размер 
В этой теме нет новых непрочитанных сообщений. Салам, New York! / Salam, New York! (Руслан Акун) [2013, комедия, драма, мелодрама, WEB-DLRip]

Nickolas3435

455 | 23

2.04 ГБ

В этой теме нет новых непрочитанных сообщений. Рождение мафии: Нью-Йорк / The Making of the Mob: New York [Season 1, episodes 1-8 of 8] (Джон Илер) [драма, криминал, триллер, 2015] WEB-DLRip [LostFilm]

Dracon

296 | 113

3.74 ГБ

В этой теме нет новых непрочитанных сообщений. Жандарм в Нью-Йорке / Le gendarme а New York [комедия, 1965] HDTVRip-AVC, Mvo

salma3

8 | 3

1.74 ГБ

В этой теме нет новых непрочитанных сообщений. Мгновения Нью-Йорка / New York Minute [комедия, 2004] DVDRip-AVC, Dub

salma3

12 | 4

1.46 ГБ

В этой теме нет новых непрочитанных сообщений. Нью-Йорк, Нью-Йорк / Synecdoche, New York [Комедия, драма, 2008] BDRip 720p, Mvo+Sub

salma3

71 | 6

4.36 ГБ

В этой теме нет новых непрочитанных сообщений. Нью-Йорк, Нью-Йорк / Synecdoche, New York [комедия, драма, 2008] HDRip, Mvo

salma3

23 | 7

1.85 ГБ

В этой теме нет новых непрочитанных сообщений. Добро пожаловать в Нью-Йорк / Welcome to New York [драма, 2014] WEBRip, Mvo

Dracon

417 | 7

1.37 ГБ


Начать новую тему Ответить на тему  [ 1 сообщение ] 




Для Мосгорсуда, Роскомнадзора и рекламодателей:: mosgorsud-torrent[собачка]yandex.ru