Торрент файл
скачать торрент магнет ссылка Добавлен: 11 фев 2014, 21:35
Размер: 1.46 ГБ
Сидеров: 20
Личеров: 2
Статус: (salma3)
Автор

СообщениеДобавлено: 11 фев 2014, 21:35 

Не в сети
Супермодератор
Аватара пользователя
Дата регистрации:
15 фев 2012, 16:44
Возраст: 27
Спасибо: 5135 / 2089
Сообщения: 17406
Рассеянный / Le Distrait

Год выпуска: 1970
Жанр: комедия, мелодрама
Режиссер: Пьер Ришар

В ролях: Пьер Ришар, Мари-Кристин Барро, Мария Паком, Катрин Сами, Мишлин Люссьони, Поль Пребуа, Цилла Шелтон, Робер Дальбан, Франсуа Мэтр, Жак Моно, Роман Бутей, Клод Эдрард, Энн-Мари Бло, Фанни Гэллард, Рауль Дэлфоз, Жан Об, Робер Ле Беаль, Рожер Люмон, Альбер Симоно, Бернар Шарлан, Бернар Блие, Андре Баден, Ив Барсак, Эллен Бернсен, Натали Курваль, Жак Дери, Анна Дукинг, Андре Дюма, Мишель Франчини, Марсель Гассук, Жорж Гере, Мариус Лори

Описание:
Пьер Малаке — эксцентричный и невероятно рассеянный молодой человек с богатым воображением, живущий в мире грёз и постоянно попадающий в различные курьёзные ситуации. По рекомендации матери он нанят в крупное рекламное агентство «Жерико». Пьер, полный бредовых рекламных идей, вмешивается во все дела и пытается всё переделать на свой манер. Его рекламные ролики напоминают фильмы ужасов; тема насилия и смерти забавляет его, чёрный юмор присутствует во всех его работах. Он убеждён, что «шоковая» реклама — самая эффективная и современная. Его действия шокируют и раздражают сотрудников, но, к их изумлению, строгий босс, господин Гитон спускает Пьеру с рук все его проделки.



Страна: Франция
Продолжительность: 01:22:19
Перевод: Профессиональный (двухголосый) [НТВ+]

Файл
Качество: WEBDLRip
Формат файла: AVI
Видео кодек: XviD
Аудио кодек: AC3
Видео: 672x400 (1.68:1), 24.000 fps, XviD, ~2134 kbps avg, 0.331 bit/pixel
Аудио#1: Русский: 48 kHz, AC3 Dolby Digital, 2/0 (L,R) ch, ~192.00 kbps avg [двухголосый]
Аудио#2: Французский 48 kHz, AC3 Dolby Digital, 2/0 (L,R) ch, ~192.00 kbps avg [Оригинал]

Доп. информация:
Исходник WEB-DL 720p/HDCLUB
Общее
Полное имя : C:\Users\Admin\Downloads\Rasseyanniy.1970.WEBDLRip.avi
Формат : AVI
Формат/Информация : Audio Video Interleave
Размер файла : 1,46 Гбайт
Продолжительность : 1 ч. 22 м.
Общий поток : 2532 Кбит/сек
Программа кодирования : VirtualDubMod 1.5.10.3 | http://www.virtualdub-fr.org || (build 2550/release)
Библиотека кодирования : VirtualDubMod build 2550/release

Видео
Идентификатор : 0
Формат : MPEG-4 Visual
Профиль формата : Advanced Simple@L5
Параметр BVOP формата : 1
Параметр QPel формата : Нет
Параметр GMC формата : Без точки перехода
Параметр матрицы формата : Выборочная
Идентификатор кодека : XVID
Идентификатор кодека/Подсказка : XviD
Продолжительность : 1 ч. 22 м.
Битрейт : 2134 Кбит/сек
Ширина : 672 пикселя
Высота : 400 пикселей
Соотношение сторон : 1,680
Частота кадров : 24,000 кадра/сек
Цветовое пространство : YUV
Субдискретизация насыщенности : 4:2:0
Битовая глубина : 8 бит
Тип развёртки : Прогрессивная
Метод сжатия : С потерями
Бит/(Пиксели*Кадры) : 0.331
Размер потока : 1,23 Гбайт (84%)
Библиотека кодирования : XviD 64

Аудио #1
Идентификатор : 1
Формат : AC-3
Формат/Информация : Audio Coding 3
Профиль формата : Dolby Digital
Расширение режима : CM (complete main)
Параметр Endianness формата : Big
Идентификатор кодека : 2000
Продолжительность : 1 ч. 22 м.
Вид битрейта : Постоянный
Битрейт : 192 Кбит/сек
Каналы : 2 канала
Расположение каналов : Front: L R
Частота : 48,0 КГц
Битовая глубина : 16 бит
Метод сжатия : С потерями
Размер потока : 113 Мбайт (8%)
Выравнивание : Разделение по промежуткам
Продолжительность промежутка : 42 мс. (1,00 видеокадр)
Время предзагрузки промежутка : 500 мс.

Аудио #2
Идентификатор : 2
Формат : AC-3
Формат/Информация : Audio Coding 3
Расширение режима : CM (complete main)
Параметр Endianness формата : Big
Идентификатор кодека : 2000
Продолжительность : 1 ч. 22 м.
Вид битрейта : Постоянный
Битрейт : 192 Кбит/сек
Каналы : 2 канала
Расположение каналов : Front: L R
Частота : 48,0 КГц
Битовая глубина : 16 бит
Метод сжатия : С потерями
Размер потока : 113 Мбайт (8%)
Выравнивание : Разделение по промежуткам
Продолжительность промежутка : 42 мс. (1,00 видеокадр)
Время предзагрузки промежутка : 500 мс.








_________________



реклама партнёра


Вернуться к началу
 Профиль Отправить личное сообщение  
 
   Похожие торренты   Автор   Торрент   Размер 
В этой теме нет новых непрочитанных сообщений. Половое воспитание / Sex Ed [мелодрама, комедия, 2014] WEBDLRip, Dub [iTunes]

salma3

105 | 23

1.45 ГБ

В этой теме нет новых непрочитанных сообщений. Не менее странно, чем любовь / No Stranger Than Love [мелодрама, комедия, 2015] WEBDLRip, Mvo

salma3

34 | 2

1.35 ГБ

В этой теме нет новых непрочитанных сообщений. В Гонконге уже завтра / Already Tomorrow in Hong Kong [мелодрама, комедия, 2015] WEBDLRip, Dvo

salma3

28 | 4

1.36 ГБ

В этой теме нет новых непрочитанных сообщений. Методы борьбы со светом / Katti Batti [мелодрама, комедия, 2015] WEBDLRip, Dvo

salma3

86 | 9

1.68 ГБ

В этой теме нет новых непрочитанных сообщений. Если твоя девушка – зомби / Life After Beth [ужасы, мелодрама, комедия, 2014] WEBDLRip, Dub [iTunes]

salma3

87 | 11

1.37 ГБ

В этой теме нет новых непрочитанных сообщений. От A до Z / A to Z (Сезон 1, Серия 1-8 из 13) ( Майкл Патрик Джэнн, Стив Пинк) [2014, Романтический, комедия, мелодрама, WEBDLRip-AVC][1080р] [MVO] [AlexFilm]

Враг Нароода

11 | 6

7.46 ГБ

В этой теме нет новых непрочитанных сообщений. От A до Z / A to Z (Сезон 1, Серия 1-13 из 13) ( Майкл Патрик Джэнн, Стив Пинк) [2014-2015, Романтический, комедия, мелодрама, WEBDLRip-AVC][1080р] [MVO] [AlexFilm]

Враг Нароода

2 | 2

12.09 ГБ


Начать новую тему Ответить на тему  [ 1 сообщение ] 




Для Мосгорсуда, Роскомнадзора и рекламодателей:: mosgorsud-torrent[собачка]yandex.ru