Торрент файл
скачать торрент магнет ссылка Добавлен: 09 фев 2014, 03:26
Размер: 1.45 ГБ
Сидеров: 11
Личеров: 2
Статус: (salma3)
Автор

СообщениеДобавлено: 09 фев 2014, 03:26 

Не в сети
Супермодератор
Аватара пользователя
Дата регистрации:
15 фев 2012, 16:44
Возраст: 27
Спасибо: 5121 / 2089
Сообщения: 17296
Лихорадка / Cabin Fever

«Ужас... Внутри»

Год выпуска: 2002
Жанр: ужасы
Режиссер: Элай Рот

В ролях: Серина Винсент, Джои Керн, Райдер Стронг, Джордан Лэдд, Джеймс ДеБелло, Эри Вервин, Роберт Харрис, Хэл Кортни, Мэттью Хелмс, Ричард Бун

Описание: После тяжелого учебного года пятеро студентов решают провести пару дней в маленькой лесной хижине. Несмотря на странное поведение местных жителей, они намерены как следует расслабиться, но внезапно их планы нарушает встреча с бродягой с ужасной, будто бы гниющей кожей. Ребятам удается отделаться от несчастного, но они не знают, что он успел отравить местный водоем, и неизвестная инфекция уже распространяется по округе. Кто из них станет первой жертвой страшного вируса, пожирающего человеческую плоть?



Страна: США
Продолжительность: 01:37:48
Перевод1: Профессиональный (полное дублирование) [Лицензия]
Перевод2: Профессиональный (многоголосый, закадровый)
Cубтитры: русские, английские

Файл
Качество: BDRip-AVC
Формат файла: MKV
Видео кодек: H.264
Аудио кодек: AC3
Видео: 1024x428 (2.35:1), 23.976 fps, AVC (H.264), High@L4.1 ~ 1351 kbps, 0.129 bit/pixel
Аудио#1: Русский: 48 kHz, AC3 Dolby Digital, 3/2 (L,C,R,l,r) + LFE ch, ~384 kbps [полное дублирование]
Аудио#2: Русский: 48 kHz, AC3 Dolby Digital, 2/0 (L,R) ch, ~192 kbps [многоголосый]
Аудио#3: Английский: 48 kHz, AC3 Dolby Digital, 2/0 (L,R) ch, ~192 kbps [Оригинал]

General
Unique ID : 219833325955915637344669564674075547442 (0xA5625BC82E67B1ED9A56DD7315EC5732)
Complete name : E:\Cabin Fever_Klayd X.mkv
Format : Matroska
File size : 1.45 GiB
Duration : 1h 37mn
Overall bit rate : 2 121 Kbps
Movie name : Лихорадка / Cabin Fever (2002) [Unrated Director's Cut] BDRip-AVC rip by Rulya74
Encoded date : UTC 2012-12-06 04:15:42
Writing application : mkvmerge v5.7.0 ('The Whirlwind') built on Jul 8 2012 20:08:51
Writing library : libebml v1.2.3 + libmatroska v1.3.0

Video
ID : 1
Format : AVC
Format/Info : Advanced Video Codec
Format profile : High@L4.1
Format settings, CABAC : Yes
Format settings, ReFrames : 12 frames
Codec ID : V_MPEG4/ISO/AVC
Duration : 1h 37mn
Bit rate : 1 351 Kbps
Width : 1 024 pixels
Height : 428 pixels
Display aspect ratio : 2.35:1
Frame rate : 23.976 fps
Color space : YUV
Chroma subsampling : 4:2:0
Bit depth : 8 bits
Scan type : Progressive
Bits/(Pixel*Frame) : 0.129
Stream size : 917 MiB (62%)
Writing library : x264 core 129 r2230 1cffe9f
Encoding settings : cabac=1 / ref=12 / deblock=1:-2:-1 / analyse=0x3:0x133 / me=umh / subme=10 / psy=1 / psy_rd=1.05:0.02 / mixed_ref=1 / me_range=32 / chroma_me=1 / trellis=2 / 8x8dct=1 / cqm=0 / deadzone=21,11 / fast_pskip=0 / chroma_qp_offset=-3 / threads=2 / lookahead_threads=1 / sliced_threads=0 / nr=0 / decimate=1 / interlaced=0 / bluray_compat=0 / constrained_intra=0 / bframes=6 / b_pyramid=2 / b_adapt=2 / b_bias=0 / direct=3 / weightb=1 / open_gop=0 / weightp=2 / keyint=240 / keyint_min=23 / scenecut=40 / intra_refresh=0 / rc_lookahead=40 / rc=2pass / mbtree=1 / bitrate=1351 / ratetol=1.0 / qcomp=0.60 / qpmin=10 / qpmax=51 / qpstep=4 / cplxblur=20.0 / qblur=0.5 / ip_ratio=1.40 / aq=2:1.00

Audio #1
ID : 2
Format : AC-3
Format/Info : Audio Coding 3
Mode extension : CM (complete main)
Codec ID : A_AC3
Duration : 1h 37mn
Bit rate mode : Constant
Bit rate : 384 Kbps
Channel(s) : 6 channels
Channel positions : Front: L C R, Side: L R, LFE
Sampling rate : 48.0 KHz
Bit depth : 16 bits
Compression mode : Lossy
Stream size : 269 MiB (18%)
Title : Дублированный
Language : Russian

Audio #2
ID : 3
Format : AC-3
Format/Info : Audio Coding 3
Mode extension : CM (complete main)
Codec ID : A_AC3
Duration : 1h 37mn
Bit rate mode : Constant
Bit rate : 192 Kbps
Channel(s) : 2 channels
Channel positions : Front: L R
Sampling rate : 48.0 KHz
Bit depth : 16 bits
Compression mode : Lossy
Stream size : 134 MiB (9%)
Title : Многоголосый закадровый
Language : Russian

Audio #3
ID : 4
Format : AC-3
Format/Info : Audio Coding 3
Mode extension : CM (complete main)
Codec ID : A_AC3
Duration : 1h 37mn
Bit rate mode : Constant
Bit rate : 192 Kbps
Channel(s) : 2 channels
Channel positions : Front: L R
Sampling rate : 48.0 KHz
Bit depth : 16 bits
Compression mode : Lossy
Stream size : 134 MiB (9%)
Title : Оригинал
Language : English

Text #1
ID : 5
Format : UTF-8
Codec ID : S_TEXT/UTF8
Codec ID/Info : UTF-8 Plain Text
Title : forced
Language : Russian

Text #2
ID : 6
Format : UTF-8
Codec ID : S_TEXT/UTF8
Codec ID/Info : UTF-8 Plain Text
Title : full
Language : Russian

Text #3
ID : 7
Format : UTF-8
Codec ID : S_TEXT/UTF8
Codec ID/Info : UTF-8 Plain Text
Title : full
Language : English






_________________



реклама партнёра


Вернуться к началу
 Профиль Отправить личное сообщение  
 
   Похожие торренты   Автор   Торрент   Размер 
В этой теме нет новых непрочитанных сообщений. Лихорадка 2: Весеннее обострение / Cabin Fever 2: Spring Fever [ужасы, 2009] HDRip-AVC, Dub [Лицензия]

salma3

5 | 2

1.46 ГБ

В этой теме нет новых непрочитанных сообщений. Лихорадка 3: Пациент Зеро / Cabin Fever: Patient Zero [ужасы, 2014] BDRip 720p, Dvo

salma3

116 | 6

2.25 ГБ

В этой теме нет новых непрочитанных сообщений. Лихорадка: Пациент Зеро / Cabin Fever: Patient Zero [ужасы, 2014] BDRip 1080p, Dvo

salma3

23 | 8

8.44 ГБ

В этой теме нет новых непрочитанных сообщений. Лихорадка 3: Пациент Зеро / Cabin Fever: Patient Zero [ужасы, 2014] HDRip, Dvo

salma3

432 | 14

1.46 ГБ

В этой теме нет новых непрочитанных сообщений. Лихорадка / Cabin Fever (Трэвис Заривны) [2016, ужасы, комедия, WEBDLRip] avo

Nickolas3435

269 | 16

1.46 ГБ

В этой теме нет новых непрочитанных сообщений. Лихорадка: Пациент Зеро / Cabin Fever: Patient Zero [ужасы, 2014] Blu-ray 1080p, Dvo

Dracon

47 | 31

22.44 ГБ

В этой теме нет новых непрочитанных сообщений. Последние каникулы 2 / Cabin Fever 2: Spring Fever [ужасы, триллер, комедия, 2009] HDRip, Mvo

salma3

126 | 20

701.67 МБ


Начать новую тему Ответить на тему  [ 1 сообщение ] 




Для Мосгорсуда, Роскомнадзора и рекламодателей:: mosgorsud-torrent[собачка]yandex.ru