Торрент файл
скачать торрент магнет ссылка Добавлен: 09 фев 2014, 03:21
Размер: 1.46 ГБ
Сидеров: 5
Личеров: 2
Статус: (salma3)
Автор

СообщениеДобавлено: 09 фев 2014, 03:21 

В сети
Супермодератор
Аватара пользователя
Дата регистрации:
15 фев 2012, 16:44
Возраст: 27
Спасибо: 5143 / 2090
Сообщения: 17513
Лихорадка 2: Весеннее обострение / Cabin Fever 2: Spring Fever

«Время распространения...»

Год выпуска: 2009
Жанр: ужасы
Режиссер: Кимберли Пирс

В ролях: Ной Сеган, Райдер Стронг, Алекси Вассер, Расти Келли, Марк Сентер, Александр Айзиа Томас, Джузеппе Эндрюс, Майкл Боуэн, Риган Дил, Марк Борхардт

Описание: Лихорадка вырывается из лесной глуши и попадает в маленький городок Спрингфилд в день выпускного бала. Подростки готовятся проститься со школой, детством и невинностью, но им предстоит лишиться большего, ведь в город прибывает команда зачистки.



Страна: США
Продолжительность: 01:25:59
Перевод: Профессиональный (многоголосый, закадровый) [Лицензия]

Файл
Качество: HDRip-AVC
Формат файла: MKV
Видео кодек: H.264
Аудио кодек: AC3
Видео: 1024x432 (2.35:1), 24.000 fps, AVC (H.264), High@L4.1 ~1793 kbps, 0.169 bit/pixel
Аудио#1: Русский: 48 kHz, AC3 Dolby Digital, 3/2 (L,C,R,l,r) + LFE ch, ~448 kbps [многоголосый]
Аудио#2: Английский: 48 kHz, AC3 Dolby Digital, 2/0 (L,R) ch, ~192 kbps [Оригинал]

General
Unique ID : 245163106112236350916318519094733999647 (0xB870B25D082A9685AAF8A529945C8E1F)
Complete name : E:\Cabin Fever 2_Klayd X.mkv
Format : Matroska
File size : 1.46 GiB
Duration : 1h 26mn
Overall bit rate : 2 431 Kbps
Movie name : Cabin Fever 2: Spring Fever 2009 - The Jolly Roger by Pirat.Ca [zyyx]
Encoded date : UTC 2012-05-20 12:47:07
Writing application : mkvmerge v4.9.1 ('Ich will') сборка от Jul 11 2011 23:53:15
Writing library : libebml v1.2.1 + libmatroska v1.1.1

Video
ID : 1
Format : AVC
Format/Info : Advanced Video Codec
Format profile : High@L4.1
Format settings, CABAC : Yes
Format settings, ReFrames : 11 frames
Codec ID : V_MPEG4/ISO/AVC
Duration : 1h 26mn
Bit rate : 1 793 Kbps
Width : 1 024 pixels
Height : 432 pixels
Display aspect ratio : 2.35:1
Frame rate : 24.000 fps
Color space : YUV
Chroma subsampling : 4:2:0
Bit depth : 8 bits
Scan type : Progressive
Bits/(Pixel*Frame) : 0.169
Stream size : 1.05 GiB (72%)
Writing library : x264 core 116 r2044 392e762
Encoding settings : cabac=1 / ref=11 / deblock=1:-2:-1 / analyse=0x3:0x133 / me=umh / subme=10 / psy=1 / psy_rd=1.00:0.20 / mixed_ref=1 / me_range=32 / chroma_me=1 / trellis=2 / 8x8dct=1 / cqm=0 / deadzone=21,11 / fast_pskip=1 / chroma_qp_offset=-3 / threads=6 / sliced_threads=0 / nr=0 / decimate=1 / interlaced=0 / bluray_compat=0 / constrained_intra=0 / bframes=6 / b_pyramid=2 / b_adapt=2 / b_bias=0 / direct=3 / weightb=1 / open_gop=0 / weightp=2 / keyint=250 / keyint_min=23 / scenecut=40 / intra_refresh=0 / rc_lookahead=60 / rc=2pass / mbtree=1 / bitrate=1793 / ratetol=1.0 / qcomp=0.60 / qpmin=0 / qpmax=69 / qpstep=4 / cplxblur=20.0 / qblur=0.5 / ip_ratio=1.40 / aq=1:1.00

Audio #1
ID : 2
Format : AC-3
Format/Info : Audio Coding 3
Mode extension : CM (complete main)
Codec ID : A_AC3
Duration : 1h 26mn
Bit rate mode : Constant
Bit rate : 448 Kbps
Channel(s) : 2 channels
Channel positions : Front: L R
Sampling rate : 48.0 KHz
Bit depth : 16 bits
Compression mode : Lossy
Stream size : 276 MiB (18%)

Audio #2
ID : 3
Format : AC-3
Format/Info : Audio Coding 3
Mode extension : CM (complete main)
Codec ID : A_AC3
Duration : 1h 26mn
Bit rate mode : Constant
Bit rate : 192 Kbps
Channel(s) : 2 channels
Channel positions : Front: L R
Sampling rate : 48.0 KHz
Bit depth : 16 bits
Compression mode : Lossy
Stream size : 118 MiB (8%)


_________________



реклама партнёра


Вернуться к началу
 Профиль Отправить личное сообщение  
 
   Похожие торренты   Автор   Торрент   Размер 
В этой теме нет новых непрочитанных сообщений. Последние каникулы 2 / Cabin Fever 2: Spring Fever [ужасы, триллер, комедия, 2009] HDRip, Mvo

salma3

126 | 20

701.67 МБ

В этой теме нет новых непрочитанных сообщений. Лихорадка / Cabin Fever [ужасы, 2002] BDRip-AVC, Dub+Mvo+Sub [Лицензия]

salma3

11 | 2

1.45 ГБ

В этой теме нет новых непрочитанных сообщений. Лихорадка 3: Пациент Зеро / Cabin Fever: Patient Zero [ужасы, 2014] HDRip, Dvo

salma3

432 | 14

1.46 ГБ

В этой теме нет новых непрочитанных сообщений. Лихорадка / Cabin Fever (Трэвис Заривны) [2016, ужасы, комедия, WEBDLRip] avo

Nickolas3435

269 | 16

1.46 ГБ

В этой теме нет новых непрочитанных сообщений. Лихорадка: Пациент Зеро / Cabin Fever: Patient Zero [ужасы, 2014] Blu-ray 1080p, Dvo

Dracon

47 | 31

22.44 ГБ

В этой теме нет новых непрочитанных сообщений. Лихорадка: Пациент Зеро / Cabin Fever: Patient Zero [ужасы, 2014] BDRip 1080p, Dvo

salma3

23 | 8

8.44 ГБ

В этой теме нет новых непрочитанных сообщений. Лихорадка 3: Пациент Зеро / Cabin Fever: Patient Zero [ужасы, 2014] BDRip 720p, Dvo

salma3

116 | 6

2.25 ГБ


Начать новую тему Ответить на тему  [ 1 сообщение ] 




Для Мосгорсуда, Роскомнадзора и рекламодателей:: mosgorsud-torrent[собачка]yandex.ru