Торрент файл
скачать торрент магнет ссылка Добавлен: 07 фев 2014, 13:34
Размер: 1.36 ГБ
Сидеров: 38
Личеров: 2
Статус: (salma3)
Автор

СообщениеДобавлено: 07 фев 2014, 13:34 

Не в сети
Супермодератор
Аватара пользователя
Дата регистрации:
15 фев 2012, 16:44
Возраст: 27
Спасибо: 5139 / 2089
Сообщения: 17411
Ржавая сталь / Rusty Steel

Год выпуска: 2013
Жанр: приключения
Режиссер: Йон Йонеску

В ролях: Йоханн Урб, Ирина Буческу, Пол Кэмпбелл, Дин Стокуэлл

Описание:
Братья-американцы приезжают в Румынию, чтобы вступить в права наследства, оставленного им дядей. Каково же их рахочарование, когда все наследство заключается в старой ржавой посудине под названием «Ржавая сталь». Братья даже подумывают вернуться в США, но дядины дневники толкают их к поискам.

Страна: США
Продолжительность: 01:29:27
Перевод: Профессиональный (двухголосый)

Файл
Качество: SATRip
Формат файла: AVI
Видео кодек: XviD
Аудио кодек: AC3
Видео: 720x384 (1.85:1), 25 fps, XviD MPEG-4 ~1978 kbps avg, 0.286 bit/pixel
Аудио: 48 kHz, АС3, 2 ch, Front: L R ~192.00 kbps avg

Доп. информация:
Озвучивание НТВ+

Общее
Полное имя : C:\Users\Admin\Downloads\Rzhavaja.stal.2013.SATRip
Формат : AVI
Формат/Информация : Audio Video Interleave
Размер файла : 1,36 Гбайт
Продолжительность : 1 ч. 29 м.
Общий поток : 2180 Кбит/сек
Название фильма : MediaClub
Программа кодирования : VirtualDubMod 1.5.10.2 (build 2540/release)
Библиотека кодирования : VirtualDubMod build 2540/release

Видео
Идентификатор : 0
Формат : MPEG-4 Visual
Профиль формата : Advanced Simple@L5
Параметр BVOP формата : 2
Параметр QPel формата : Нет
Параметр GMC формата : Без точки перехода
Параметр матрицы формата : Default (MPEG)
Идентификатор кодека : XVID
Идентификатор кодека/Подсказка : XviD
Продолжительность : 1 ч. 29 м.
Битрейт : 1978 Кбит/сек
Ширина : 720 пикселей
Высота : 384 пикселя
Соотношение сторон : 1,85:1
Частота кадров : 25,000 кадров/сек
Цветовое пространство : YUV
Субдискретизация насыщенности : 4:2:0
Битовая глубина : 8 бит
Тип развёртки : Прогрессивная
Метод сжатия : С потерями
Бит/(Пиксели*Кадры) : 0.286
Размер потока : 1,24 Гбайт (91%)
Библиотека кодирования : XviD 65

Аудио
Идентификатор : 1
Формат : AC-3
Формат/Информация : Audio Coding 3
Расширение режима : CM (complete main)
Параметр Endianness формата : Big
Идентификатор кодека : 2000
Продолжительность : 1 ч. 29 м.
Вид битрейта : Постоянный
Битрейт : 192 Кбит/сек
Каналы : 2 канала
Расположение каналов : Front: L R
Частота : 48,0 КГц
Битовая глубина : 16 бит
Метод сжатия : С потерями
Размер потока : 123 Мбайт (9%)
Выравнивание : Разделение по промежуткам
Продолжительность промежутка : 40 мс. (1,00 видеокадр)
Время предзагрузки промежутка : 500 мс.






_________________



реклама партнёра


Вернуться к началу
 Профиль Отправить личное сообщение  
 
   Похожие торренты   Автор   Торрент   Размер 
В этой теме нет новых непрочитанных сообщений. Ржавая сталь / Rusty Steel [приключения, 2013] HDTVRip 720p, Dvo [НТВ+]

Dracon

251 | 12

2.48 ГБ

В этой теме нет новых непрочитанных сообщений. Мистер Сталь / Сталь / Steel [фантастика, боевик, криминал, 1997] DVDRip, Dub+Mvo

salma3

138 | 9

1.46 ГБ

В этой теме нет новых непрочитанных сообщений. Голубая сталь / Вороненая сталь / Blue Steel [Боевик, триллер, драма, криминал, 1989] BDRip 720p, Dvo+Avo

salma3

15 | 3

4.37 ГБ

В этой теме нет новых непрочитанных сообщений. Голубая сталь / Blue Steel [Триллер, детектив, боевик, драма, 1989] BDRip-AVC, Mvo+Dvo+Avo+Sub

salma3

31 | 4

2.72 ГБ

В этой теме нет новых непрочитанных сообщений. Огненное кольцо 2: Огонь и сталь / Ring of Fire II: Blood and Steel [Боевик, драма, 1993] DVDRip, Mvo

salma3

17 | 1

1.37 ГБ

В этой теме нет новых непрочитанных сообщений. Crying Steel - Time Stands Steel [2013, Heavy Metal, Power Metal, MP3]

PriZraK

0 | 1

122.62 МБ

В этой теме нет новых непрочитанных сообщений. Conquest Of Steel - Of Fire And Steel [2013, Heavy Metal, Power Metal, MP3]

PriZraK

0 | 2

98.59 МБ


Начать новую тему Ответить на тему  [ 1 сообщение ] 




Для Мосгорсуда, Роскомнадзора и рекламодателей:: mosgorsud-torrent[собачка]yandex.ru