Торрент файл
скачать торрент магнет ссылка Добавлен: 06 фев 2014, 16:34
Размер: 1.37 ГБ
Сидеров: 6
Личеров: 6
Статус: (salma3)
Автор

СообщениеДобавлено: 06 фев 2014, 16:34 

Не в сети
Супермодератор
Аватара пользователя
Дата регистрации:
15 фев 2012, 16:44
Возраст: 27
Спасибо: 5121 / 2089
Сообщения: 17342
Возвращение живых мертвецов 3 / Return of the Living Dead 3

«Back from the dead and hungry for more»


Год выпуска: 1993
Жанр: ужасы, фантастика, мелодрама
Режиссер: Брайан Юзна / Brian Yuzn

В ролях: Минди Кларк, Дж. Тревор Эдмонд, Кент МакКорд, Сара Даглас, Джеймс Т. Кэллэхэн, Майк Морофф

Описание:
В секретной военной лаборатории проводятся эксперименты по воскрешению мертвецов и превращению их в смертоносное биологическое оружие.
Двое молодых людей, Курт, сын руководителя этого необычного научного проекта, и его девушка Джули, становятся случайными свидетелями исследований, и сбегают, не увидев жуткого финала одного из опытов. Ребята попадают в ужасную аварию и Джули погибает. Но Курт знает, что предпринять — вернуть свою любимую из мертвых в лаборатории отца.
Но совершенно не предполагает какие кровавые события, за пределами самых кошмарных фантазий, ждут его впереди. Вместо любимой девушки он получает не поддающегося уничтожению монстра, чей укус превращает жертв в таких же зомби, жаждущих человеческой плоти.



Страна: США, Япония
Продолжительность: 01:36:54
Перевод: Профессиональный [многоголосый, закадровый] [Фильм-Экспорт]

Файл
Качество: DVDRip
Формат файла: AVI
Видео кодек: XviD
Аудио кодек: AC3
Видео: 720x408 (1.76:1), 25 fps, XviD build 47 ~1566 kbps avg, 0.21 bit/pixel
Аудио: Русский: 48 kHz, AC3 Dolby Digital, 3/2 (L,C,R,l,r) + LFE ch, ~448.00 kbps avg














General
Complete name : E:\Фильмы\Возвращение живых мертвецов - 3.1993.MVO.DVDRip.[tfile.ru].avi
Format : AVI
Format/Info : Audio Video Interleave
File size : 1.37 GiB
Duration : 1h 36mn
Overall bit rate : 2 024 Kbps
Writing application : VirtualDubMod 1.5.10.2 (build 2540/release)
Writing library : VirtualDubMod build 2540/release

Video
ID : 0
Format : MPEG-4 Visual
Format profile : Advanced Simple@L5
Format settings, BVOP : 3
Format settings, QPel : No
Format settings, GMC : No warppoints
Format settings, Matrix : Default (H.263)
Codec ID : XVID
Codec ID/Hint : XviD
Duration : 1h 36mn
Bit rate : 1 567 Kbps
Width : 720 pixels
Height : 408 pixels
Display aspect ratio : 16:9
Frame rate : 25.000 fps
Color space : YUV
Chroma subsampling : 4:2:0
Bit depth : 8 bits
Scan type : Progressive
Compression mode : Lossy
Bits/(Pixel*Frame) : 0.213
Stream size : 1.06 GiB (77%)
Writing library : XviD 1.2.0.dev47 (UTC 2006-11-01)

Audio
ID : 1
Format : AC-3
Format/Info : Audio Coding 3
Mode extension : CM (complete main)
Codec ID : 2000
Duration : 1h 36mn
Bit rate mode : Constant
Bit rate : 448 Kbps
Channel(s) : 6 channels
Channel positions : Front: L C R, Side: L R, LFE
Sampling rate : 48.0 KHz
Bit depth : 16 bits
Compression mode : Lossy
Stream size : 309 MiB (22%)
Alignment : Split accross interleaves
Interleave, duration : 40 ms (1.00 video frame)
Interleave, preload duration : 500 ms


_________________



реклама партнёра


Вернуться к началу
 Профиль Отправить личное сообщение  
 
   Похожие торренты   Автор   Торрент   Размер 
В этой теме нет новых непрочитанных сообщений. Возвращение живых мертвецов / The Return of the Living Dead [ужасы, фантастика, комедия, 1985] HDRip, Dvo [НТВ+]

salma3

23 | 3

1.45 ГБ

В этой теме нет новых непрочитанных сообщений. Возвращение живых мертвецов 2 / Return of the Living Dead Part II [ужасы, фантастика, комедия, 1988] WEB-DLRip, Mvo [Премьер Видео Фильм]

salma3

3 | 4

1.46 ГБ

В этой теме нет новых непрочитанных сообщений. Слепые мертвецы 2: Возвращение слепых мертвецов / Blind Dead 2: Return of the Evil Dead [Ужасы, 1973] DVDRip, Avo

salma3

0 | 2

1.46 ГБ

В этой теме нет новых непрочитанных сообщений. Ночь Живых Мертвецов / Night Of The Living Dead [ужасы, 1990] BDRemux 1080p, Avo+Sub

salma3

31 | 3

24.06 ГБ

В этой теме нет новых непрочитанных сообщений. Город живых мертвецов / City of the Living Dead [ужасы, 1980] BDRip 720p, Mvo+3Avo+Sub

salma3

43 | 4

4.24 ГБ

В этой теме нет новых непрочитанных сообщений. Мимесис. Ночь живых мертвецов / Mimesis: Night of the Living Dead [Ужасы, 2011] HDRip, dvo

Dracon

3 | 2

1.47 ГБ

В этой теме нет новых непрочитанных сообщений. Мимесис. Ночь живых мертвецов / Mimesis: Night of the Living Dead [Ужасы, 2011] BDRip 720p, dvo

Dracon

9 | 3

4.59 ГБ


Начать новую тему Ответить на тему  [ 1 сообщение ] 




Для Мосгорсуда, Роскомнадзора и рекламодателей:: mosgorsud-torrent[собачка]yandex.ru