Торрент файл
скачать торрент магнет ссылка Добавлен: 06 фев 2014, 15:39
Размер: 1.52 ГБ
Сидеров: 9
Личеров: 3
Статус: (salma3)
Автор

СообщениеДобавлено: 06 фев 2014, 15:39 

Не в сети
Супермодератор
Аватара пользователя
Дата регистрации:
15 фев 2012, 16:44
Возраст: 27
Спасибо: 5130 / 2089
Сообщения: 17350
Кто убивает великих европейских поваров? / Who Is Killing the Great Chefs of Europe?

Год выпуска: 1978
Жанр: комедия, детектив, криминал
Режиссер: Тед Котчефф

В ролях: Джордж Сигал, Жаклин Биссет, Роберт Морли, Жан-Пьер Кассель, Филипп Нуаре, Жан Рошфор, Джиджи Пройетти, Стефано Сатта Флорес, Мэдж Райан, Фрэнк Уиндзор

Описание:
Толстяк Макс работает редактором лондонского журнала для гурманов и давно пристрастился ко всяческим деликатесам, приготовленным лучшими европейскими поварами. В конце концов врач заявляет ему, что если тот не сбросит вес, то в скором времени умрёт от ожирения. После этого любимых кулинаров Макса начинают находить мёртвыми.



Страна: США, Италия, Франция, Германия (ФРГ)
Продолжительность: 01:52:20
Перевод: Любительский (одноголосый)

Файл
Качество: DVDRip
Формат файла: AVI
Видео кодек: XviD
Аудио кодек: AC3
Видео: 704x384 (1.85:1), 23.976 fps, XviD build 47 ~1534 kbps avg, 0.237 bit/pixel
Аудио#1: Русский: 48 kHz, АС3, 2 ch, ~192.00 kbps avg [одноголосый]
Аудио#2: Английский 48 kHz, АС3, 2 ch, ~192.00 kbps avg [Оригинал]

Общее
Полное имя : D:\FILM\F-2014\Disk-22\Kto.ubivaet.povarov.1978.USA.[vo.satkur+eng].AC3.Rus\Kto.ubivaet.povarov.1978.USA.[vo.satkur+eng].AC3.Rus.avi
Формат : AVI
Формат/Информация : Audio Video Interleave
Размер файла : 1,52 Гбайт
Продолжительность : 1 ч. 52 м.
Общий поток : 1932 Кбит/сек
Программа кодирования : VirtualDubModRus 1.5.10.2 (build 2542/release)
Библиотека кодирования : VirtualDubMod build 2542/release

Видео
Идентификатор : 0
Формат : MPEG-4 Visual
Профиль формата : Simple@L1
Параметр BVOP формата : Нет
Параметр QPel формата : Нет
Параметр GMC формата : Без точки перехода
Параметр матрицы формата : Default (H.263)
Идентификатор кодека : XVID
Идентификатор кодека/Подсказка : XviD
Продолжительность : 1 ч. 52 м.
Битрейт : 1534 Кбит/сек
Ширина : 704 пикселя
Высота : 384 пикселя
Соотношение сторон : 1,85:1
Частота кадров : 23,976 кадра/сек
Цветовое пространство : YUV
Субдискретизация насыщенности : 4:2:0
Битовая глубина : 8 бит
Тип развёртки : Прогрессивная
Метод сжатия : С потерями
Бит/(Пиксели*Кадры) : 0.237
Размер потока : 1,20 Гбайт (79%)
Библиотека кодирования : Lavc52.84.0

Аудио #1
Идентификатор : 1
Формат : AC-3
Формат/Информация : Audio Coding 3
Расширение режима : CM (complete main)
Параметр Endianness формата : Big
Идентификатор кодека : 2000
Продолжительность : 1 ч. 52 м.
Вид битрейта : Постоянный
Битрейт : 192 Кбит/сек
Каналы : 2 канала
Расположение каналов : Front: L R
Частота : 48,0 КГц
Битовая глубина : 16 бит
Метод сжатия : С потерями
Размер потока : 154 Мбайт (10%)
Выравнивание : Разделение по промежуткам
Продолжительность промежутка : 42 мс. (1,00 видеокадр)
Время предзагрузки промежутка : 500 мс.

Аудио #2
Идентификатор : 2
Формат : AC-3
Формат/Информация : Audio Coding 3
Расширение режима : CM (complete main)
Параметр Endianness формата : Big
Идентификатор кодека : 2000
Продолжительность : 1 ч. 52 м.
Вид битрейта : Постоянный
Битрейт : 192 Кбит/сек
Каналы : 2 канала
Расположение каналов : Front: L R
Частота : 48,0 КГц
Битовая глубина : 16 бит
Метод сжатия : С потерями
Размер потока : 154 Мбайт (10%)
Выравнивание : Разделение по промежуткам
Продолжительность промежутка : 42 мс. (1,00 видеокадр)
Время предзагрузки промежутка : 500 мс.






_________________



реклама партнёра


Вернуться к началу
 Профиль Отправить личное сообщение  
 
   Похожие торренты   Автор   Торрент   Размер 
В этой теме нет новых непрочитанных сообщений. Проклятый дом / The Killing Floor [триллер, криминал, детектив, 2007] DVDRip, Mvo

salma3

69 | 3

1.37 ГБ

В этой теме нет новых непрочитанных сообщений. Страсть убивает / Cupid's Prey [Триллер, детектив, 2003] DVDRip, Mvo

salma3

75 | 2

1.37 ГБ

В этой теме нет новых непрочитанных сообщений. Убийство / The Killing [S01-04] [драма, криминал, детектив, 2011-2014] WEB-DLRip, WEBRip, Mvo [LostFilm]

salma3

161 | 158

17.14 ГБ

В этой теме нет новых непрочитанных сообщений. Серебряные медведи / Silver Bears [комедия, криминал, 1978] DVDRip, Dvo

salma3

12 | 3

1.39 ГБ

В этой теме нет новых непрочитанных сообщений. Что тебя не убивает / What Doesn't Kill You [драма, криминал, 2008] BDRip, Dvo

salma3

1 | 3

1.45 ГБ

В этой теме нет новых непрочитанных сообщений. Что тебя не убивает / What Doesn't Kill You [Драма, криминал, 2008] BDRip 720p, Dvo+sub

salma3

39 | 4

4.69 ГБ

В этой теме нет новых непрочитанных сообщений. Убийство Джона Леннона / The Killing of John Lennon [драма, криминал, 2006] DVDRip, Dvo

salma3

88 | 8

1.95 ГБ


Начать новую тему Ответить на тему  [ 1 сообщение ] 




Для Мосгорсуда, Роскомнадзора и рекламодателей:: mosgorsud-torrent[собачка]yandex.ru