Торрент файл
скачать торрент магнет ссылка Добавлен: 05 фев 2014, 14:15
Размер: 1.34 ГБ
Сидеров: 479
Личеров: 32
Статус: (salma3)
Автор

СообщениеДобавлено: 05 фев 2014, 14:15 

В сети
Супермодератор
Аватара пользователя
Дата регистрации:
15 фев 2012, 16:44
Возраст: 28
Спасибо: 6593 / 2145
Сообщения: 44237
Шов / Stitch

Год выхода: 2014
Жанр: Триллер
Режиссер: Аджай

В ролях: Эдвард Ферлонг, Шона Уолрод, Дайан Салинджер, Лоуренс Мэйсон, Ширли Бренер, Дуглас Тейт, Тиффани Мартин

О фильме:
История о скорбящих родителях Марсдене и Серафине, которые пытаются пережить смерть своей маленькой дочери. На пике отчаяния они обращаются к своим друзьям за советом. Их друзья, действуя из лучших побуждений, вывозят их далеко в пустыню, чтобы там они, пройдя некий ритуал, смогли избавиться от своих переживаний. Но все пошло наперекосяк…



Страна: США
Студия: Thunderbolt Entertainment, Wolf Pack Film Works
Продолжительность: 01:31:03
Перевод: Профессиональный [двухголосый] [НТВ+]

Файл
Качество: SATRip
Формат файла: AVI
Видео кодек: XviD
Аудио кодек: AC3
Видео: 1900 Кбит/с, 720x400, 25.000 кадр/с
Звук: Русский (АС3, 2 ch, 192 Кбит/с)

Семпл

Общее
Полное имя : Shov.2014.SATRip.MediaClub.avi
Формат : AVI
Формат/Информация : Audio Video Interleave
Размер файла : 1,34 Гбайт
Продолжительность : 1 ч. 31 м.
Общий поток : 2101 Кбит/сек
Название фильма : MediaClub
Программа кодирования : VirtualDubMod 1.5.10.2 (build 2540/release)
Библиотека кодирования : VirtualDubMod build 2540/release

Видео
Идентификатор : 0
Формат : MPEG-4 Visual
Профиль формата : Advanced Simple@L5
Параметр BVOP формата : 2
Параметр QPel формата : Нет
Параметр GMC формата : Без точки перехода
Параметр матрицы формата : Default (MPEG)
Идентификатор кодека : XVID
Идентификатор кодека/Подсказка : XviD
Продолжительность : 1 ч. 31 м.
Битрейт : 1900 Кбит/сек
Ширина : 720 пикселей
Высота : 400 пикселей
Соотношение сторон : 16:9
Частота кадров : 25,000 кадров/сек
Цветовое пространство : YUV
Субдискретизация насыщенности : 4:2:0
Битовая глубина : 8 бит
Тип развёртки : Прогрессивная
Метод сжатия : С потерями
Бит/(Пиксели*Кадры) : 0.264
Размер потока : 1,21 Гбайт (90%)
Библиотека кодирования : XviD 65

Аудио
Идентификатор : 1
Формат : AC-3
Формат/Информация : Audio Coding 3
Расширение режима : CM (complete main)
Параметр Endianness формата : Big
Идентификатор кодека : 2000
Продолжительность : 1 ч. 31 м.
Вид битрейта : Постоянный
Битрейт : 192 Кбит/сек
Каналы : 2 канала
Расположение каналов : Front: L R
Частота : 48,0 КГц
Битовая глубина : 16 бит
Метод сжатия : С потерями
Размер потока : 125 Мбайт (9%)
Выравнивание : Разделение по промежуткам
Продолжительность промежутка : 40 мс. (1,00 видеокадр)
Время предзагрузки промежутка : 500 мс.


Релиз от:


_________________
Проголосуй за трекер Открытый торрент трекер - RUS-MEDIA.ORG

Проголосуй Открытый торрент трекер - RUS-MEDIA.ORG



реклама партнёра


Вернуться к началу
 Профиль Отправить личное сообщение  
 
   Похожие торренты   Автор   Торрент   Размер 
В этой теме нет новых непрочитанных сообщений. Палач [01-10 из 10] (Вячеслав Никифоров) [Триллер, 2014] SatRip

Dracon

13 | 5

6.96 ГБ

В этой теме нет новых непрочитанных сообщений. Ледяная угроза / Christmas Icetastrophe [триллер, фантастика, катастрофа, 2014] SATRip, Mvo

salma3

5 | 5

752.19 МБ

В этой теме нет новых непрочитанных сообщений. Апокалипсис в Лос-Анджелесе / LA Apocalypse [Фантастика, боевик, триллер, катастрофа, 2014] SATRip, [SDI Media]

Dracon

13 | 4

1.06 ГБ

В этой теме нет новых непрочитанных сообщений. Ледниковый период 2014 [17] ФИНАЛ! [ТВ-шоу, фигурное катание, соревнование, 2014] SATRip

Dracon

1 | 4

1.91 ГБ

В этой теме нет новых непрочитанных сообщений. Великое чудо Серафима Саровского [Эфир от 01.08.2014] [документальный, 2014] SATRip

salma3

9 | 2

610.82 МБ

В этой теме нет новых непрочитанных сообщений. Невидимая власть микробов (Эфир от 29.10.2014) [2014, документальный, SATRip]

salma3

1 | 11

637.29 МБ

В этой теме нет новых непрочитанных сообщений. Ледниковый период 2014 [01-16] [ТВ-шоу, фигурное катание, соревнование, 2014] SATRip

Dracon

3 | 34

30.21 ГБ


Начать новую тему Ответить на тему  [ 1 сообщение ] 




Для Мосгорсуда, Роскомнадзора и рекламодателей:: mosgorsud-torrent[собачка]yandex.ru