Торрент файл
скачать торрент магнет ссылка Добавлен: 04 фев 2014, 18:42
Размер: 1.46 ГБ
Сидеров: 67
Личеров: 9
Статус: (salma3)
Автор

СообщениеДобавлено: 04 фев 2014, 18:42 

Не в сети
Супермодератор
Аватара пользователя
Дата регистрации:
15 фев 2012, 16:44
Возраст: 27
Спасибо: 5143 / 2090
Сообщения: 17513
Перерождение / Rebirth / Bangkok Revenge

Год выхода: 2011
Жанр: Боевик, драма
Режиссер: Жан-Марк Минео

В ролях: Джон Фу, Каролин Дюсе, Микаэль Коэн, Апхиради Пхавапхутанон, Винай Краибутр, Ковитч Ватхана, Лиоутсиа Гоубайдоуллина, Джулалук Исмалоне, Тхирапхонг Риавруквонг, Дом Хетракул

О фильме:
Манит — 10-летний мальчик, ставший свидетелем убийства своих родителей. Позабыв о жалости, убийцы решают избавиться от него. Получив пулю в голову, ребёнок чудом выживает и поправляется от ранения, но начинает страдать атараксией. Из-за травмы мозга он не в состоянии испытывать хоть какие-то эмоции. Спасённый от верной смерти пожилым мастером боевых искусств, Манит, 20 лет спустя превращается в настоящую боевую машину и возвращается туда, где провёл своё детство… Грядёт правосудие… И быть смертям…



Страна: Франция, Таиланд
Студия: Cercle, Le, G&G
Продолжительность: 01:21:52
Перевод: Профессиональный [двухголосый] [НТВ+]

Файл
Качество: DVDRip
Формат файла: AVI
Видео кодек: XviD
Аудио кодек: AC3
Видео: 1900 Кбит/с, 720x384, 23,976 кадр/с
Аудио1:Русский (АС3, 2 ch, 192 Кбит/с)
Аудио2:Тайский (AC3, 6 ch, 448 Кбит/с)

Семпл

Общее
Полное имя : Pererozhdenie.2011.HDRip.MediaClub.avi
Формат : AVI
Формат/Информация : Audio Video Interleave
Размер файла : 1,46 Гбайт
Продолжительность : 1 ч. 21 м.
Общий поток : 2554 Кбит/сек
Программа кодирования : VirtualDubMod 1.5.10.2 (build 2540/release)
Библиотека кодирования : VirtualDubMod build 2540/release

Видео
Идентификатор : 0
Формат : MPEG-4 Visual
Профиль формата : Advanced Simple@L5
Параметр BVOP формата : 2
Параметр QPel формата : Нет
Параметр GMC формата : Без точки перехода
Параметр матрицы формата : Default (MPEG)
Идентификатор кодека : XVID
Идентификатор кодека/Подсказка : XviD
Продолжительность : 1 ч. 21 м.
Битрейт : 1900 Кбит/сек
Ширина : 720 пикселей
Высота : 384 пикселя
Соотношение сторон : 1,85:1
Частота кадров : 23,976 кадра/сек
Цветовое пространство : YUV
Субдискретизация насыщенности : 4:2:0
Битовая глубина : 8 бит
Тип развёртки : Прогрессивная
Метод сжатия : С потерями
Бит/(Пиксели*Кадры) : 0.287
Размер потока : 1,09 Гбайт (74%)
Библиотека кодирования : XviD 65

Аудио #1
Идентификатор : 1
Формат : AC-3
Формат/Информация : Audio Coding 3
Идентификатор кодека : 2000
Продолжительность : 1 ч. 21 м.
Вид битрейта : Постоянный
Битрейт : 192 Кбит/сек
Каналы : 2 канала
Частота : 48,0 КГц
Метод сжатия : С потерями
Размер потока : 112 Мбайт (8%)
Выравнивание : Разделение по промежуткам
Продолжительность промежутка : 42 мс. (1,00 видеокадр)
Время предзагрузки промежутка : 500 мс.

Аудио #2
Идентификатор : 2
Формат : AC-3
Формат/Информация : Audio Coding 3
Расширение режима : CM (complete main)
Параметр Endianness формата : Big
Идентификатор кодека : 2000
Продолжительность : 1 ч. 21 м.
Вид битрейта : Постоянный
Битрейт : 448 Кбит/сек
Каналы : 6 каналов
Расположение каналов : Front: L C R, Side: L R, LFE
Частота : 48,0 КГц
Битовая глубина : 16 бит
Метод сжатия : С потерями
Размер потока : 262 Мбайт (18%)
Выравнивание : Разделение по промежуткам
Продолжительность промежутка : 42 мс. (1,00 видеокадр)
Время предзагрузки промежутка : 500 мс.


Релиз от:


_________________



реклама партнёра


Вернуться к началу
 Профиль Отправить личное сообщение  
 
   Похожие торренты   Автор   Торрент   Размер 
В этой теме нет новых непрочитанных сообщений. Прогулка по Бангкоку / On a marché sur Bangkok (Оливье Барру) [комедия, 2014] HDRip, Mvo

Dracon

530 | 14

1.37 ГБ

В этой теме нет новых непрочитанных сообщений. Вой: Перерождение / The Howling: Reborn [ужасы, триллер, 2011] BDRemux 1080p, Mvo+Dvo

salma3

16 | 10

19.75 ГБ

В этой теме нет новых непрочитанных сообщений. Сладкая месть / Sweet Revenge [боевик, драма, приключения, 1987] HDTVRip, Dvo [НТВ+]

salma3

8 | 7

1.36 ГБ

В этой теме нет новых непрочитанных сообщений. Банк в Бангкоке / Бангкок дает согласие агенту OSS 117 / Banco a Bangkok pour OSS 117 [боевик, приключения, экранизация, 1964] DVDRip, Dvo

salma3

94 | 25

1.46 ГБ

В этой теме нет новых непрочитанных сообщений. Драконы Нью-Йорка / Revenge of the Green Dragons (Вэй Кеунг Лау, Эндрю Лу) [Боевик, драма, криминал, 2014] НDRip, Dvo

Dracon

414 | 13

1.37 ГБ

В этой теме нет новых непрочитанных сообщений. 4th Dimension - The White Path To Rebirth [2011, Symphonic Power Metal, MP3]

PriZraK

0 | 1

121.88 МБ

В этой теме нет новых непрочитанных сообщений. Драконы Нью-Йорка / Revenge of the Green Dragons (Вэй Кеунг Лау, Эндрю Лу) [Боевик, драма, криминал, 2014] НDRip, dub [Чистый звук]

Dracon

5534 | 265

1.37 ГБ


Начать новую тему Ответить на тему  [ 1 сообщение ] 




Для Мосгорсуда, Роскомнадзора и рекламодателей:: mosgorsud-torrent[собачка]yandex.ru