Торрент файл
скачать торрент магнет ссылка Добавлен: 02 фев 2014, 21:19
Размер: 1.46 ГБ
Сидеров: 42
Личеров: 5
Статус: (salma3)
Автор

СообщениеДобавлено: 02 фев 2014, 21:19 

Не в сети
Супермодератор
Аватара пользователя
Дата регистрации:
15 фев 2012, 16:44
Возраст: 27
Спасибо: 5131 / 2089
Сообщения: 17372
Разумное сомнение / Reasonable Doubt

Год выпуска: 2014
Жанр: триллер, криминал
Режиссер: Питер Хауит / Peter Howitt

В ролях: Доминик Купер, Сэмюэл Л. Джексон, Эрин Карплак, Глория Рубен, Райан Роббинс, Дилан Тейлор, Филипп Бреннинкмейер, Лэйн Стайлз, Джон Б. Лоу, Джессика Бёрлсон

Описание: Жизнь окружного прокурора переворачивается с ног на голову, когда он оказывается вовлеченным в перестрелку и за его преступление другого человека арестовывают и обвиняют в убийстве.



Страна: Германия, Канада
Продолжительность: 01:31:16
Перевод: Любительский (одноголосый) datynet + Оригинальный
Субтитры: русские (отдельно) .srt

Файл
Качество: WEB-DLRip
Формат файла: AVI
Видео кодек: XviD
Аудио кодек: AC3
Видео: XviD, 704x288 (2.40:1), 1888 kbps, 23,976 fps, 0,388 bpp
Аудио №1: MP3 / 2.0 / 44 kHz / 192 kbps / VO
Аудио №2: AC3 / 2.0 / 48 kHz / 192 kbps / 16 bit Eng
Субтитры: русские (отдельно) .srt

General
Complete name : F:my_ripРазумное_сомнение_2014Reasonable.Doubt.2014.WEB-DLRip.[New-Team].avi
Format : AVI
Format/Info : Audio Video Interleave
File size : 1.46 GiB
Duration : 1h 31mn
Overall bit rate : 2 287 Kbps
Writing application : VirtualDubMod 1.5.10.3 | http://www.virtualdub-fr.org || (build 2550/release)
Writing library : VirtualDubMod build 2550/release

Video
ID : 0
Format : MPEG-4 Visual
Format profile : Advanced Simple@L5
Format settings, BVOP : 1
Format settings, QPel : No
Format settings, GMC : No warppoints
Format settings, Matrix : Custom
Codec ID : XVID
Codec ID/Hint : XviD
Duration : 1h 31mn
Bit rate : 1 889 Kbps
Width : 704 pixels
Height : 288 pixels
Display aspect ratio : 2.40:1
Frame rate : 23.976 fps
Color space : YUV
Chroma subsampling : 4:2:0
Bit depth : 8 bits
Scan type : Progressive
Compression mode : Lossy
Bits/(Pixel*Frame) : 0.388
Stream size : 1.20 GiB (83%)
Writing library : XviD 73

Audio #1
ID : 1
Format : MPEG Audio
Format version : Version 1
Format profile : Layer 3
Codec ID : 55
Codec ID/Hint : MP3
Duration : 1h 31mn
Bit rate mode : Constant
Bit rate : 192 Kbps
Channel count : 2 channels
Sampling rate : 44.1 KHz
Compression mode : Lossy
Stream size : 125 MiB (8%)
Alignment : Split accross interleaves
Interleave, duration : 42 ms (1.00 video frame)
Interleave, preload duration : 500 ms

Audio #2
ID : 2
Format : AC-3
Format/Info : Audio Coding 3
Mode extension : CM (complete main)
Format settings, Endianness : Big
Codec ID : 2000
Duration : 1h 31mn
Bit rate mode : Constant
Bit rate : 192 Kbps
Channel count : 2 channels
Channel positions : Front: L R
Sampling rate : 48.0 KHz
Bit depth : 16 bits
Compression mode : Lossy
Stream size : 125 MiB (8%)
Alignment : Split accross interleaves
Interleave, duration : 42 ms (1.00 video frame)
Interleave, preload duration : 500 ms


Релиз от:


_________________



реклама партнёра


Вернуться к началу
 Профиль Отправить личное сообщение  
 
   Похожие торренты   Автор   Торрент   Размер 
В этой теме нет новых непрочитанных сообщений. Разумное сомнение / Reasonable Doubt [триллер, криминал, 2014] BDRip 720p, Avo+Sub

Dracon

13 | 2

5.1 ГБ

В этой теме нет новых непрочитанных сообщений. Разумное сомнение / Reasonable Doubt [триллер, криминал, 2014] BDRip 720p, Mvo+Avo+Sub

Dracon

179 | 6

5.24 ГБ

В этой теме нет новых непрочитанных сообщений. Сомнение / Doubt [драма, детектив, 2008] Blu-ray 1080p, Dub+Sub

salma3

43 | 16

39.61 ГБ

В этой теме нет новых непрочитанных сообщений. Код / The Code [S01] [драма, триллер, криминал, 2014] WEB-DLRip, Mvo [AlexFilm]

Dracon

143 | 29

4.12 ГБ

В этой теме нет новых непрочитанных сообщений. Стрингер / Nightcrawler (Дэн Гилрой) [триллер, драма, криминал, 2014] WEB-DLRip, mvo

Dracon

111 | 3

2.04 ГБ

В этой теме нет новых непрочитанных сообщений. Холод в июле / Cold in July [триллер, криминал, 2014] WEB-DLRip, avo

Dracon

6 | 2

1.41 ГБ

В этой теме нет новых непрочитанных сообщений. Знает только Бог / By the Gun (Джеймс Моттерн) [2014, триллер, драма, криминал, WEB-DLRip] avo

Nickolas3435

799 | 58

1.46 ГБ


Начать новую тему Ответить на тему  [ 1 сообщение ] 




Для Мосгорсуда, Роскомнадзора и рекламодателей:: mosgorsud-torrent[собачка]yandex.ru