Торрент файл
скачать торрент магнет ссылка Добавлен: 01 фев 2014, 17:53
Размер: 1.46 ГБ
Сидеров: 12
Личеров: 4
Статус: (salma3)
Автор

СообщениеДобавлено: 01 фев 2014, 17:53 

В сети
Супермодератор
Аватара пользователя
Дата регистрации:
15 фев 2012, 16:44
Возраст: 27
Спасибо: 5139 / 2089
Сообщения: 17420
Мгновения Нью-Йорка / New York Minute

Год выпуска: 2004
Жанр: комедия
Режиссер: Дэнни Гордон / Dennie Gordon

В ролях: Эшли Олсен, Мэри-Кейт Олсен, Юджин Леви, Энди Рихтер, Райли Смит, Джаред Падалеки, Дрю Пински, Даррел Хэммонд, Андреа Мартин, Аланна Онг, Мэри Бонд Дэвис, Боб Сагет

Описание: Один день из жизни 17-летних сестер-близняшек Джейн и Рокси Райан. Путешествие от Лонг-Айленда до Нью-Йорк Сити оказывается полным не только забавных приключений, но и досадных неожиданностей. Правильная Джейн мечтает поступить в престижный колледж, а рок-бунтарка Рокси хочет стать музыкальной подпольщицей, но их планам может помешать придирчивый полицейский, который обвиняет девчонок в том, что они стащили собаку сенатора. У Джейн и Рокси есть несколько часов, чтобы оправдаться, иначе одна останется без колледжа, а вторая загремит в монастырь...



Страна: США
Продолжительность: 01:27:19
Перевод: Профессиональный (полное дублирование)

Качество: DVDRip-AVC [Исходник DVD5]
Формат: MKV
Видео кодек: H.264
Аудио кодек: AC3
Видео: 720x576@1024x574 (16:9), 25 fps, H264, 2 005 Kbps, 0.193 bit/pixel
Аудио: 48 kHz, AC3 Dolby Digital, 3/2 (L,C,R,l,r) + LFE ch, ~384 kbps

D:Мои рипыNew.York.Minute.DVDRip-AVC.dexter_lex.mkv
General
Unique ID : 234205931248283738357860022338504544413 (0xB0326BEEEC23A0D4968072F1542AD09D)
Complete name : D:Мои рипыNew.York.Minute.DVDRip-AVC.dexter_lex.mkv
Format : Matroska
Format version : Version 2
File size : 1.46 GiB
Duration : 1h 27mn
Overall bit rate : 2 389 Kbps
Encoded date : UTC 2014-01-29 22:11:40
Writing application : mkvmerge v6.1.0 ('Old Devil') built on Mar 4 2013 09:10:42
Writing library : libebml v1.3.0 + libmatroska v1.4.0
Video #1
ID : 1
Format : AVC
Format/Info : Advanced Video Codec
Format profile : High@L4.1
Format settings, CABAC : Yes
Format settings, ReFrames : 11 frames
Codec ID : V_MPEG4/ISO/AVC
Duration : 1h 27mn
Bit rate : 2 005 Kbps
Width : 720 pixels
Height : 576 pixels
Display aspect ratio : 16:9
Frame rate : 25.000 fps
Standard : PAL
Color space : YUV
Chroma subsampling : 4:2:0
Bit depth : 8 bits
Scan type : Progressive
Bits/(Pixel*Frame) : 0.193
Stream size : 1.19 GiB (82%)
Writing library : x264 core 130 r2273 b3065e6
Encoding settings : cabac=1 / ref=11 / deblock=1:-2:-1 / analyse=0x3:0x113 / me=umh / subme=10 / psy=1 / psy_rd=1.00:0.20 / mixed_ref=1 / me_range=48 / chroma_me=1 / trellis=2 / 8x8dct=1 / cqm=0 / deadzone=21,11 / fast_pskip=0 / chroma_qp_offset=-3 / threads=6 / lookahead_threads=1 / sliced_threads=0 / nr=0 / decimate=0 / interlaced=0 / bluray_compat=0 / constrained_intra=0 / bframes=8 / b_pyramid=2 / b_adapt=2 / b_bias=0 / direct=3 / weightb=1 / open_gop=0 / weightp=2 / keyint=250 / keyint_min=25 / scenecut=40 / intra_refresh=0 / rc_lookahead=60 / rc=2pass / mbtree=1 / bitrate=2005 / ratetol=1.0 / qcomp=0.60 / qpmin=0 / qpmax=69 / qpstep=4 / cplxblur=20.0 / qblur=0.5 / ip_ratio=1.40 / aq=1:1.00
Default : Yes
Forced : No
Audio #2
ID : 2
Format : AC-3
Format/Info : Audio Coding 3
Mode extension : CM (complete main)
Codec ID : A_AC3
Duration : 1h 27mn
Bit rate mode : Constant
Bit rate : 384 Kbps
Channel(s) : 6 channels
Channel positions : Front: L C R, Side: L R, LFE
Sampling rate : 48.0 KHz
Bit depth : 16 bits
Compression mode : Lossy
Stream size : 240 MiB (16%)
Default : Yes
Forced : No

Раздача от:


_________________



реклама партнёра


Вернуться к началу
 Профиль Отправить личное сообщение  
 
   Похожие торренты   Автор   Торрент   Размер 
В этой теме нет новых непрочитанных сообщений. Банды Нью-Йорка / Gangs of New York [драма, криминал, история, 2002] Blu-ray 1080p, Dub+Sub

salma3

46 | 22

35.82 ГБ

В этой теме нет новых непрочитанных сообщений. Побег из Нью-Йорка / Escape from New York [фантастика, боевик, 1981] BDRemux 1080p, 2xMvo

salma3

2 | 2

40.28 ГБ

В этой теме нет новых непрочитанных сообщений. Салам, New York / Salam, New York! [Комедия, драма, мелодрама, 2013] WEB-DLRip

Dracon

102 | 5

1.46 ГБ

В этой теме нет новых непрочитанных сообщений. Салам, New York! / Salam, New York! (Руслан Акун) [2013, комедия, драма, мелодрама, WEB-DLRip]

Nickolas3435

455 | 23

2.04 ГБ

В этой теме нет новых непрочитанных сообщений. Мгновения нашей жизни 1.0 / Tiny Times 1.0 (Го Цзин Мин / Jinming Guo) [2013г., Китай, драма, комедия, мелодрама, DVDRip] Sub

Alfredovich

4 | 3

1.37 ГБ

В этой теме нет новых непрочитанных сообщений. Гарри и Уолтер едут в Нью-Йорк / Harry and Walter Go to New York [комедия, криминал, 1976] DVDRip, Mvo

salma3

215 | 43

1.47 ГБ

В этой теме нет новых непрочитанных сообщений. Scar For Life - 3 Minute Silence [2012, Heavy, Thrash Metal, MP3]

PriZraK

0 | 1

134.42 МБ


Начать новую тему Ответить на тему  [ 1 сообщение ] 




Для Мосгорсуда, Роскомнадзора и рекламодателей:: mosgorsud-torrent[собачка]yandex.ru