Торрент файл
скачать торрент магнет ссылка Добавлен: 31 янв 2014, 21:12
Размер: 1.46 ГБ
Сидеров: 18
Личеров: 4
Статус: (salma3)
Автор

СообщениеДобавлено: 31 янв 2014, 21:12 

В сети
Супермодератор
Аватара пользователя
Дата регистрации:
15 фев 2012, 16:44
Возраст: 27
Спасибо: 5121 / 2089
Сообщения: 17304
Не упускай из виду / La Course a l'echalote

Жанр: Комедия
Год выпуска: 1975
Режиссер: Клод Зиди / Claude Zidi

В ролях: Пьер Ришар, Джейн Биркин, Мишель Омон, Амадеус Аугуст, Анри Деюс, Луис Рего, Катрин Аллегре, Андре Безю, Жан Мартен

Описание: Пьер работает в банке и любит парикмахершу Жанет, но ей кажется скучной любовь с банкиром, думающим в первую очередь только о работе. И однажды, Пьера назначают временным заместителем директора банка, пока сам директор уезжает в отпуск. И именно в это время мошенники решают украсть из банка важные документы, но бдительный Пьер, заметив это, бросается в погоню. Но во время погони он попадается на глаза Жанет, и та, решив, что Пьер нашел другую, бросается в погоню за ним! И начинается цепь невероятных приключений и недоразумений, в которые попадают герои этой прекрасной комедии!



Страна: Франция, Германия
Продолжительность: 01:35:11
Перевод: Профессиональный (полное дублирование) Советский + Вставки двухголоски

Качество видео: DVDRip [Исходник DVD9]
Формат видео: AVI
Видео кодек: XviD
Аудио кодек: AC3
Видео: 688x384 (1.79:1), 25 fps, XviD build 73 ~1999 kbps avg, 0.30 bit/pixel
Аудио: 48 kHz, AC3 Dolby Digital, 2/0 (L,R) ch, ~192 kbps


D:Мои рипыLa.course.a.l'echalote.DVDRip.dexter_lex.avi
General
Complete name : D:Мои рипыLa.course.a.l'echalote.DVDRip.dexter_lex.avi
Format : AVI
Format/Info : Audio Video Interleave
File size : 1.46 GiB
Duration : 1h 35mn
Overall bit rate : 2 202 Kbps
Writing application : VirtualDubMod 1.5.10.3 | http://www.virtualdub-fr.org || (build 2550/release)
Writing library : VirtualDubMod build 2550/release
Video #0
ID : 0
Format : MPEG-4 Visual
Format profile : Advanced Simple@L5
Format settings, BVOP : 1
Format settings, QPel : No
Format settings, GMC : No warppoints
Format settings, Matrix : Custom
Codec ID : XVID
Codec ID/Hint : XviD
Duration : 1h 35mn
Bit rate : 2 000 Kbps
Width : 688 pixels
Height : 384 pixels
Display aspect ratio : 16:9
Frame rate : 25.000 fps
Color space : YUV
Chroma subsampling : 4:2:0
Bit depth : 8 bits
Scan type : Progressive
Compression mode : Lossy
Bits/(Pixel*Frame) : 0.303
Stream size : 1.33 GiB (91%)
Writing library : XviD 73
Audio #1
ID : 1
Format : AC-3
Format/Info : Audio Coding 3
Mode extension : CM (complete main)
Codec ID : 2000
Duration : 1h 35mn
Bit rate mode : Constant
Bit rate : 192 Kbps
Channel(s) : 2 channels
Channel positions : Front: L R
Sampling rate : 48.0 KHz
Bit depth : 16 bits
Compression mode : Lossy
Stream size : 131 MiB (9%)
Alignment : Split accross interleaves
Interleave, duration : 40 ms (1.00 video frame)
Interleave, preload duration : 500 ms


Раздача от:


_________________



реклама партнёра


Вернуться к началу
 Профиль Отправить личное сообщение  
 
   Похожие торренты   Автор   Торрент   Размер 
В этой теме нет новых непрочитанных сообщений. На виду / Exposed [драма, 1983] DVDRip, Mvo

salma3

7 | 4

1.37 ГБ

В этой теме нет новых непрочитанных сообщений. Двурушник / Le faux-cul [комедия, криминал, 1975] DVDRip, Avo

salma3

8 | 3

1.46 ГБ

В этой теме нет новых непрочитанных сообщений. Пленник Второй авеню / The Prisoner of Second Avenue [комедия, 1975] DVDRip, Mvo

salma3

18 | 4

1.46 ГБ

В этой теме нет новых непрочитанных сообщений. Кот и мышь / Le chat et la souris [драма, комедия, криминал, 1975] DVDRip, Mvo

salma3

119 | 7

1.46 ГБ

В этой теме нет новых непрочитанных сообщений. Сумасшедшая мамаша / Crazy Mama [боевик, драма, комедия, криминал, 1975] DVDRip, Dvo

salma3

24 | 13

1.37 ГБ

В этой теме нет новых непрочитанных сообщений. Девчонка, которую убить мало / Holka na zabití [криминал, комедия, детектив, 1975] DVDRip, Avo

salma3

26 | 3

1.46 ГБ

В этой теме нет новых непрочитанных сообщений. Не подавай виду / Something Wicked (Дэрин Скотт) [Ужасы, Триллер, Драма, Детектив, 2014] WEB-DLRip, dvo

Dracon

3 | 2

700.43 МБ


Начать новую тему Ответить на тему  [ 1 сообщение ] 




Для Мосгорсуда, Роскомнадзора и рекламодателей:: mosgorsud-torrent[собачка]yandex.ru