Торрент файл
скачать торрент магнет ссылка Добавлен: 31 янв 2014, 12:48
Размер: 1.46 ГБ
Сидеров: 7
Личеров: 3
Статус: (salma3)
Автор

СообщениеДобавлено: 31 янв 2014, 12:48 

Не в сети
Супермодератор
Аватара пользователя
Дата регистрации:
15 фев 2012, 16:44
Возраст: 27
Спасибо: 6056 / 2116
Сообщения: 29566
Моя мачеха - инопланетянка / My Stepmother Is an Alien

Год выпуска: 1988
Жанр: фантастика, комедия
Режиссер: Ричард Бенджамин

В ролях: Дэн Эйкройд, Ким Бейсингер, Джон Ловиц, Элисон Хэннигэн, Джозеф Maэp, Сет Грин, Энн Прентисс, Уэсли Манн

Описание: Селеста — сексуальная инопланетянка с секретным заданием — совратить ничего не подозревающего физика Стива Миллса и добраться до его исследований, в которых содержится ключ к спасению ее планеты. Разодетая по последней моде и закусывающая на завтрак батарейками, Селеста производит неизгладимое впечатление на земных мужчин. Счастливый муж вот-вот испытает близкие контакты космически невообразимой степени!

Рейтинг на:

Страна: США
Продолжительность: 01:43:31
Перевод: Профессиональный (многоголосый, закадровый)

Файл
Качество: HDTVRip
Формат файла: AVI
Видео кодек: XviD
Аудио кодек: AC3
Видео: 720x400 (1.80:1), 25 fps, XviD MPEG-4 ~1626 kbps avg, 0.23 bit/pixel
Аудио 1: Русский, 48 kHz, AC3 Dolby Digital, 2/0 (L,R) ch, ~192.00 kbps avg [многоголосый]
Аудио 2: Русский, 48 kHz, AC3 Dolby Digital, 2/0 (L,R) ch, ~192.00 kbps avg [Л. Володарский]


General
Complete name : E:\My Stepmother is an Alien 1988 HDTVRip\My Stepmother is an Alien 1988 HDTVRip 1.46.avi
Format : AVI
Format/Info : Audio Video Interleave
File size : 1.46 GiB
Duration : 1h 43mn
Overall bit rate : 2 024 Kbps
Writing application : VirtualDubModRus 1.5.10.2 (build 2542/release)
Writing library : VirtualDubMod build 2542/release

Video
ID : 0
Format : MPEG-4 Visual
Format profile : Advanced Simple@L5
Format settings, BVOP : 1
Format settings, QPel : No
Format settings, GMC : No warppoints
Format settings, Matrix : Default (H.263)
Muxing mode : Packed bitstream
Codec ID : XVID
Codec ID/Hint : XviD
Duration : 1h 43mn
Bit rate : 1 626 Kbps
Width : 720 pixels
Height : 400 pixels
Display aspect ratio : 16:9
Frame rate : 25.000 fps
Color space : YUV
Chroma subsampling : 4:2:0
Bit depth : 8 bits
Scan type : Progressive
Compression mode : Lossy
Bits/(Pixel*Frame) : 0.226
Stream size : 1.18 GiB (80%)
Writing library : XviD 57

Audio #1
ID : 1
Format : AC-3
Format/Info : Audio Coding 3
Mode extension : CM (complete main)
Format settings, Endianness : Big
Codec ID : 2000
Duration : 1h 43mn
Bit rate mode : Constant
Bit rate : 192 Kbps
Channel(s) : 2 channels
Channel positions : Front: L R
Sampling rate : 48.0 KHz
Bit depth : 16 bits
Compression mode : Lossy
Stream size : 142 MiB (9%)
Alignment : Split accross interleaves
Interleave, duration : 40 ms (1.00 video frame)
Interleave, preload duration : 500 ms

Audio #2
ID : 2
Format : AC-3
Format/Info : Audio Coding 3
Mode extension : CM (complete main)
Format settings, Endianness : Big
Codec ID : 2000
Duration : 1h 43mn
Bit rate mode : Constant
Bit rate : 192 Kbps
Channel(s) : 2 channels
Channel positions : Front: L R
Sampling rate : 48.0 KHz
Bit depth : 16 bits
Compression mode : Lossy
Stream size : 142 MiB (9%)
Alignment : Split accross interleaves
Interleave, duration : 40 ms (1.00 video frame)
Interleave, preload duration : 500 ms








Релиз от:


_________________
Проголосуй за трекер Открытый торрент трекер - RUS-MEDIA.ORG

Проголосуй Открытый торрент трекер - RUS-MEDIA.ORG



реклама партнёра


Вернуться к началу
 Профиль Отправить личное сообщение  
 
   Похожие торренты   Автор   Торрент   Размер 
В этой теме нет новых непрочитанных сообщений. Моя мачеха - инопланетянка / My Stepmother Is an Alien [фантастика, комедия, 1988] WEBRip 1080p, Mvoича

salma3

81 | 27

10.87 ГБ

В этой теме нет новых непрочитанных сообщений. Инопланетянка из Лос-Анджелеса / Alien from L.A. [фантастика, комедия, приключения, 1988] DVDRip-AVC, Avo

salma3

168 | 33

2.1 ГБ

В этой теме нет новых непрочитанных сообщений. Инопланетянка из Лос-Анджелеса / Alien from L.A. [фантастика, комедия, приключения, 1988] DVDRip, Avo

salma3

175 | 30

1.45 ГБ

В этой теме нет новых непрочитанных сообщений. Злая мачеха / Wicked Stepmother [фэнтези, комедия, 1989] DVDRip, Avo

salma3

40 | 4

1.46 ГБ

В этой теме нет новых непрочитанных сообщений. The Stepmother #14 / Мачеха #14 (2016) WEB-DL

amadei

2 | 4

1.77 ГБ

В этой теме нет новых непрочитанных сообщений. It's Okay She's My Stepmother 5 / Все В Порядке, Это Моя Мачеха 5 (Devil's Films) (Nikki Daniels, Savannah Jane, Allison Moore, Valerie Voxx) [2015 г., All Sex, MILF / Cougar, DVDRip 404p](Split Scenes)

friizze

9 | 6

1.27 ГБ

В этой теме нет новых непрочитанных сообщений. Private Blockbusters 12: My Stepmother Is A Vampire / Моя Мачеха - Вампир (Alex Conte / Private) [2014 г., Feature, Anal, Vampire, 540p, WEB-DL] (Split Scenes)

salma3

17 | 5

1.41 ГБ


Начать новую тему Ответить на тему  [ 1 сообщение ] 




Для Мосгорсуда, Роскомнадзора и рекламодателей:: mosgorsud-torrent[собачка]yandex.ru