Торрент файл
скачать торрент магнет ссылка Добавлен: 29 янв 2014, 20:54
Размер: 1.37 ГБ
Сидеров: 0
Личеров: 3
Статус: (salma3)
Автор

СообщениеДобавлено: 29 янв 2014, 20:54 

В сети
Супермодератор
Аватара пользователя
Дата регистрации:
15 фев 2012, 16:44
Возраст: 27
Спасибо: 5139 / 2090
Сообщения: 17448
Смертельный друг / Deadly Friend

Год выпуска: 1986
Режиссер: Уэс Крэйвен / Wes Craven
Жанр: ужасы, фантастика, драма, детектив

В ролях: Мэттью Лаборто, Кристи Свэнсон, Энн Твоми, Энн Рэмси, Ричард Маркус

Описание:
В центре сюжета — 15-летний Пол Конвэй, «сдвинутый на фантастике» тинэйджер, который приезжает в небольшой городок для изучения искусственного интеллекта в местном университете.
Друг Пола, робот по имени БиБи, — собственное творение героя, а новая подружка — очаровательная девушка по имени Саманта, живущая по соседству.
Когда в результате трагических событий молодой ученый теряет своих друзей, он решает воскресить свою погибшую возлюбленную. Но, как и несчастный доктор Франкенштейн, слишком поздно понимает, что его новое создание — кровожадный монстр!



Страна: США
Продолжительность: 01:30:24
Перевод: Профессиональный (многоголосый, закадровый) [Премьер Видео]

Файл
Качество: DVDRip
Формат файла: AVI
Видео кодек: DivX
Аудио кодек: AC3
Видео: 688x384 (1.79:1), 23.976 fps, DivX Codec 6.8.5/6.9.1 ~1768 kbps avg, 0.28 bit/pixel
Аудио: Русский: 48 kHz, AC3 Dolby Digital, 3/2 (L,C,R,l,r) + LFE ch, ~384 kbps


General
Complete name : E:\Фильмы\Смертельный друг.1986.DVDRip.MVO.[tfile.ru].avi
Format : AVI
Format/Info : Audio Video Interleave
File size : 1.37 GiB
Duration : 1h 30mn
Overall bit rate : 2 162 Kbps
Writing application : VirtualDubModRus 1.5.10.2 (build 2540/release)
Writing library : VirtualDubMod build 2540/release

Video
ID : 0
Format : MPEG-4 Visual
Format settings, BVOP : 1
Format settings, QPel : No
Format settings, GMC : No warppoints
Format settings, Matrix : Default (H.263)
Muxing mode : Packed bitstream
Codec ID : DX50
Codec ID/Hint : DivX 5
Duration : 1h 30mn
Bit rate : 1 769 Kbps
Width : 688 pixels
Height : 384 pixels
Display aspect ratio : 16:9
Frame rate : 23.976 fps
Color space : YUV
Chroma subsampling : 4:2:0
Bit depth : 8 bits
Scan type : Progressive
Compression mode : Lossy
Bits/(Pixel*Frame) : 0.279
Stream size : 1.12 GiB (82%)
Writing library : DivX 6.8.5 (UTC 2009-08-20)

Audio
ID : 1
Format : AC-3
Format/Info : Audio Coding 3
Mode extension : CM (complete main)
Codec ID : 2000
Duration : 1h 30mn
Bit rate mode : Constant
Bit rate : 384 Kbps
Channel(s) : 6 channels
Channel positions : Front: L C R, Side: L R, LFE
Sampling rate : 48.0 KHz
Bit depth : 16 bits
Compression mode : Lossy
Stream size : 248 MiB (18%)
Alignment : Split accross interleaves
Interleave, duration : 42 ms (1.00 video frame)
Interleave, preload duration : 500 ms













_________________



реклама партнёра


Вернуться к началу
 Профиль Отправить личное сообщение  
 
   Похожие торренты   Автор   Торрент   Размер 
В этой теме нет новых непрочитанных сообщений. Смертельный друг / Deadly Friend [детектив, фантастика, ужасы, драма, 1986] HDTVRip 720p, Avo+Mvo

salma3

35 | 3

2.66 ГБ

В этой теме нет новых непрочитанных сообщений. Лучший друг человека  / Man's Best Friend [Ужасы, Фантастика, Триллер, 1993] DVDRip, Mvo

salma3

0 | 5

1.46 ГБ

В этой теме нет новых непрочитанных сообщений. Смертельный спуск / Deadly Descent / Yeti [ужасы, фантастика, фэнтези, 2013] BDRip 1080p, Mvo

salma3

25 | 3

6.67 ГБ

В этой теме нет новых непрочитанных сообщений. Мой индийский друг / My Hindu Friend [драма, 2015] DVDRip, Mvo

salma3

93 | 17

1.41 ГБ

В этой теме нет новых непрочитанных сообщений. Друг мой / О, мой друг! / Oh My Friend [Мелодрама, 2011] HDRip, Mvo [Red Media]

salma3

1 | 2

1.46 ГБ

В этой теме нет новых непрочитанных сообщений. Смертельный уик-энд / Zellwood / Deadly Weekend [ужасы, триллер, 2013] WEB-DL 720p, Dvo

salma3

57 | 7

2.69 ГБ

В этой теме нет новых непрочитанных сообщений. Смертельный захват / Deadly Outbreak [Боевик, 1995] DVDRip, Avo [Гаврилов]

salma3

79 | 13

1.41 ГБ


Начать новую тему Ответить на тему  [ 1 сообщение ] 




Для Мосгорсуда, Роскомнадзора и рекламодателей:: mosgorsud-torrent[собачка]yandex.ru