Торрент файл
скачать торрент магнет ссылка Добавлен: 29 янв 2014, 18:28
Размер: 1.31 ГБ
Сидеров: 304
Личеров: 48
Статус: (salma3)
Автор

СообщениеДобавлено: 29 янв 2014, 18:28 

Не в сети
Супермодератор
Аватара пользователя
Дата регистрации:
15 фев 2012, 16:44
Возраст: 28
Спасибо: 6584 / 2144
Сообщения: 44077
Белая футболка / White T

Год выхода: 2013
Жанр: Kомедия
Режиссер: Лэнс Фрэнк

В ролях: Джерод Миксон, Ямал Миксон, Эрик Робертс, Дион Сандерс, Фэйзон Лав, Тони Кокс, Том ’Тайни’ Листер мл., Дот-Мари Джонс, Тоун Лок, Джерри Бедноб

О фильме:
Герберт и Генри братья-близнецы, мечтающие стать крупнейшими рэп-звездами. Их шансы на успех повышаются, после того как они покупают белую футболку с золотой биркой, благодаря которой они смогут выступить с самым легендарным рэппером в мире. Проблема лишь в том, что есть еврейский мальчик Кевин, мечтающий стать певцом, которому удается украсть столь ценную футболку…



Страна: США
Продолжительность: 01:29:22
Перевод: Профессиональный [двухголосый]

Файл
Качество: SATRip
Формат файла: AVI
Видео кодек: XviD
Аудио кодек: AC3
Видео: 1901 Кбит/с, 720x304, 25.000 кадр/с
Звук: Русский (АС3, 2 ch, 192 Кбит/с)

Семпл

Общее
Полное имя : Belaja.futbolka.2013.SATRip.MediaClub.avi
Формат : AVI
Формат/Информация : Audio Video Interleave
Размер файла : 1,31 Гбайт
Продолжительность : 1 ч. 29 м.
Общий поток : 2102 Кбит/сек
Название фильма : MediaClub
Программа кодирования : VirtualDubMod 1.5.10.2 (build 2540/release)
Библиотека кодирования : VirtualDubMod build 2540/release

Видео
Идентификатор : 0
Формат : MPEG-4 Visual
Профиль формата : Advanced Simple@L5
Параметр BVOP формата : 2
Параметр QPel формата : Нет
Параметр GMC формата : Без точки перехода
Параметр матрицы формата : Default (MPEG)
Идентификатор кодека : XVID
Идентификатор кодека/Подсказка : XviD
Продолжительность : 1 ч. 29 м.
Битрейт : 1901 Кбит/сек
Ширина : 720 пикселей
Высота : 304 пикселя
Соотношение сторон : 2,35:1
Частота кадров : 25,000 кадров/сек
Цветовое пространство : YUV
Субдискретизация насыщенности : 4:2:0
Битовая глубина : 8 бит
Тип развёртки : Прогрессивная
Метод сжатия : С потерями
Бит/(Пиксели*Кадры) : 0.347
Размер потока : 1,19 Гбайт (90%)
Библиотека кодирования : XviD 65

Аудио
Идентификатор : 1
Формат : AC-3
Формат/Информация : Audio Coding 3
Расширение режима : CM (complete main)
Параметр Endianness формата : Big
Идентификатор кодека : 2000
Продолжительность : 1 ч. 29 м.
Вид битрейта : Постоянный
Битрейт : 192 Кбит/сек
Каналы : 2 канала
Расположение каналов : Front: L R
Частота : 48,0 КГц
Битовая глубина : 16 бит
Метод сжатия : С потерями
Задержка видео : 8 мс.
Размер потока : 123 Мбайт (9%)
Выравнивание : Разделение по промежуткам
Продолжительность промежутка : 40 мс. (1,00 видеокадр)
Время предзагрузки промежутка : 500 мс.


Релиз от:


_________________
Проголосуй за трекер Открытый торрент трекер - RUS-MEDIA.ORG

Проголосуй Открытый торрент трекер - RUS-MEDIA.ORG



реклама партнёра


Вернуться к началу
 Профиль Отправить личное сообщение  
 
   Похожие торренты   Автор   Торрент   Размер 
В этой теме нет новых непрочитанных сообщений. Белая собака / White Dog [триллер, драма, 1982] HDRip, Avo

salma3

17 | 2

1.45 ГБ

В этой теме нет новых непрочитанных сообщений. Белая девушка / White Girl [Драма, 2016] WEB-DLRip, Dvo

salma3

1157 | 510

1.42 ГБ

В этой теме нет новых непрочитанных сообщений. Белая девушка / White Girl [Драма, 2016] WEB-DLRip 720p, Dvo

salma3

505 | 246

3.31 ГБ

В этой теме нет новых непрочитанных сообщений. Белая принцесса / The White Princess [S01] [Драма, 2017] WEBRip 720p, Mvo [Baibako]

salma3

29 | 41

19.99 ГБ

В этой теме нет новых непрочитанных сообщений. Большая белая обуза / The Big White [драма, комедия, криминал, 2005] HDRip-AVC, Dub

salma3

77 | 15

1.47 ГБ

В этой теме нет новых непрочитанных сообщений. Белая принцесса / The White Princess [S01] [Драма, 2017] WEBRip 1080p, Mvo [Baibako]

salma3

27 | 81

38.78 ГБ

В этой теме нет новых непрочитанных сообщений. Белая молния / White Lightning [боевик, драма, криминал, 1973] BDRip, Dvo [НТВ+]

salma3

69 | 12

1.45 ГБ


Начать новую тему Ответить на тему  [ 1 сообщение ] 




Для Мосгорсуда, Роскомнадзора и рекламодателей:: mosgorsud-torrent[собачка]yandex.ru