Торрент файл
скачать торрент магнет ссылка Добавлен: 29 янв 2014, 18:19
Размер: 1.46 ГБ
Сидеров: 7
Личеров: 2
Статус: (salma3)
Автор

СообщениеДобавлено: 29 янв 2014, 18:19 

В сети
Супермодератор
Аватара пользователя
Дата регистрации:
15 фев 2012, 16:44
Возраст: 27
Спасибо: 5143 / 2090
Сообщения: 17495
Пожиратель душ / Devour

Год выпуска: 2005
Жанр: Ужасы
Режиссер: Дэвид Уинклер / David Winkler

В ролях: Дженсен Эклс, Шаннин Соссамон, Доминик Суэйн, Уильям Сэдлер, Тич Грант, Мартин Камминс, Роб Стюарт, Р. Нельсон Браун, Ванда Кэннон, Дженн Гриффин и др.

Описание: У Зла тысячи масок. Никогда не знаешь, под каким обличьем оно явится к тебе. В дом обычного школьника Джейка Грея оно входит со странной видеоигрой под названием «Тропа». Начиная с того дня, как герой впервые сыграл в нее, его жизнь превращается в кошмар наяву.

Джейка начинают терзать жуткие видения, а его близкие — умирать один за другим медленным, мучительным, необъяснимым образом! Пытаясь понять, что происходит, и прекратить лавину смертей, герой узнает, что автором «Тропы» является безумный сатанист Дэйл Кэйтер. А значит, чтобы остановить кровавую вакханалию, Джейку, похоже, придется сразиться с самим дьяволом!



Страна: США
Продолжительность: 01:26:56
Перевод: Профессиональный (двухголосый закадровый)

Качество видео: DVDRip [Исходник DVD5]
Формат видео: AVI
Видео кодек: XviD
Аудио кодек: AC3
Видео: 704x400 (1.76:1), 25 fps, XviD build 73 ~1950 kbps avg, 0.28 bit/pixel
Аудио: 48 kHz, AC3 Dolby Digital, 3/2 (L,C,R,l,r) + LFE ch, 448 kbps

D:Мои рипыPogiratel.dush.2005.DVDRip.dexter_lex.avi
General
Complete name : D:Мои рипыPogiratel.dush.2005.DVDRip.dexter_lex.avi
Format : AVI
Format/Info : Audio Video Interleave
File size : 1.46 GiB
Duration : 1h 26mn
Overall bit rate : 2 408 Kbps
Writing application : VirtualDubMod 1.5.10.3 | http://www.virtualdub-fr.org || (build 2550/release)
Writing library : VirtualDubMod build 2550/release
Video #0
ID : 0
Format : MPEG-4 Visual
Format profile : Advanced Simple@L5
Format settings, BVOP : 1
Format settings, QPel : No
Format settings, GMC : No warppoints
Format settings, Matrix : Custom
Codec ID : XVID
Codec ID/Hint : XviD
Duration : 1h 26mn
Bit rate : 1 951 Kbps
Width : 704 pixels
Height : 400 pixels
Display aspect ratio : 16:9
Frame rate : 25.000 fps
Color space : YUV
Chroma subsampling : 4:2:0
Bit depth : 8 bits
Scan type : Progressive
Compression mode : Lossy
Bits/(Pixel*Frame) : 0.277
Stream size : 1.18 GiB (81%)
Writing library : XviD 73
Audio #1
ID : 1
Format : AC-3
Format/Info : Audio Coding 3
Mode extension : CM (complete main)
Codec ID : 2000
Duration : 1h 26mn
Bit rate mode : Constant
Bit rate : 448 Kbps
Channel(s) : 6 channels
Channel positions : Front: L C R, Side: L R, LFE
Sampling rate : 48.0 KHz
Bit depth : 16 bits
Compression mode : Lossy
Stream size : 279 MiB (19%)
Alignment : Split accross interleaves
Interleave, duration : 40 ms (1.00 video frame)
Interleave, preload duration : 500 ms


Раздача от:


_________________



реклама партнёра


Вернуться к началу
 Профиль Отправить личное сообщение  
 
   Похожие торренты   Автор   Торрент   Размер 
В этой теме нет новых непрочитанных сообщений. Пожиратель душ / Devour [ужаcы, 2005] DVDRip-AVC, Mvo

salma3

24 | 3

1.45 ГБ

В этой теме нет новых непрочитанных сообщений. Android Lust - Devour Rise and Take Flight [2006, Alternative, MP3]

PriZraK

0 | 2

73.17 МБ

В этой теме нет новых непрочитанных сообщений. Devour The Unborn - Consuming The Morgue Remains [2012, Slamming Brutal Death Metal), MP3]

PriZraK

0 | 1

78.62 МБ

В этой теме нет новых непрочитанных сообщений. Devour The Day - Time & Pressure [2013, Alt.Rock,Hard Rock, MP3]

PriZraK

0 | 1

81.71 МБ

В этой теме нет новых непрочитанных сообщений. Снадобье вурдалака / SideFX [ужасы, 2005] DVDRip, Mvo

salma3

40 | 5

1.37 ГБ

В этой теме нет новых непрочитанных сообщений. Монахиня / La monja [ужасы, триллер, 2005] DVDRip, Dvo

salma3

219 | 14

1.45 ГБ

В этой теме нет новых непрочитанных сообщений. Человекоядные / Insecticidal [Ужасы, Фантастика, 2005] DVDRip, Mvo

salma3

40 | 3

1.37 ГБ


Начать новую тему Ответить на тему  [ 1 сообщение ] 




Для Мосгорсуда, Роскомнадзора и рекламодателей:: mosgorsud-torrent[собачка]yandex.ru