Торрент файл
скачать торрент магнет ссылка Добавлен: 29 янв 2014, 18:15
Размер: 1.46 ГБ
Сидеров: 36
Личеров: 3
Статус: (salma3)
Автор

СообщениеДобавлено: 29 янв 2014, 18:15 

Не в сети
Супермодератор
Аватара пользователя
Дата регистрации:
15 фев 2012, 16:44
Возраст: 27
Спасибо: 5143 / 2090
Сообщения: 17478
Одни во тьме / Alone in the Dark

Год выпуска: 1982
Жанр: Ужасы
Режиссер: Джек Шолдер

В ролях: Джек Пэланс, Дональд Плезенс, Мартин Ландау, Дуайт Шульц, Эрланд ван Лидт, Дебора Хедуолл, Ли Тейлор-Аллан, Филлип Кларк, Элизабет Уорд, Брент Дженнингс
Описание: Из психиатрической лечебницы сбегают четверо пациентов. Дело в том, что они убеждены, что новый доктор Дэн Поттер убил их старого и горячо любимого врача Лео Бейна. Это они восприняли, как угрозу их безопасному и мирному существованию в лечебнице. В темноте ночи они окружают дом Поттера и готовятся к кровавой мести…



Страна: США
Продолжительность: 01:33:30
Перевод: Авторский (Володарский, Королев)
Оригинальная аудиодорожка: Английская

Файл
Качество: DVDRip
Формат файла: AVI
Видео кодек: XviD
Аудио кодек: AC3
Видео: 704x384 (1.83:1), 23.976 fps, XviD ~1642 kbps avg, 0.25 bit/pixel
Аудио1: 48 kHz, AC3 2.0 ~192.00 kbps avg [RUS]
Аудио2: 48 kHz, AC3 2.0 ~192.00 kbps avg [RUS]
Аудио3: 48 kHz, AC3 2.0 ~192.00 kbps avg [ENG]

Общее
Полное имя : D:1АААОдни во тьме.avi
Формат : AVI
Формат/Информация : Audio Video Interleave
Размер файла : 1,46 Гбайт
Продолжительность : 1 ч. 33 м.
Общий поток : 2239 Кбит/сек
Программа кодирования : VirtualDubMod 1.5.10.2 (build 2540/release)
Библиотека кодирования : VirtualDubMod build 2540/release

Видео
Идентификатор : 0
Формат : MPEG-4 Visual
Профиль формата : Advanced Simple@L5
Параметр BVOP формата : 2
Параметр QPel формата : Нет
Параметр GMC формата : Без точки перехода
Параметр матрицы формата : Default (MPEG)
Режим смешивания : Сжатый битовый поток
Идентификатор кодека : XVID
Идентификатор кодека/Подсказка : XviD
Продолжительность : 1 ч. 33 м.
Битрейт : 1644 Кбит/сек
Ширина : 704 пикселя
Высота : 384 пикселя
Соотношение сторон : 1,85:1
Частота кадров : 23,976 кадра/сек
Цветовое пространство : YUV
Субдискретизация насыщенности : 4:2:0
Битовая глубина : 8 бит
Тип развёртки : Прогрессивная
Метод сжатия : С потерями
Бит/(Пиксели*Кадры) : 0.254
Размер потока : 1,07 Гбайт (73%)
Библиотека кодирования : XviD 1.2.1 (UTC 2008-12-04)

Аудио #1
Идентификатор : 1
Формат : AC-3
Формат/Информация : Audio Coding 3
Расширение режима : CM (complete main)
Параметр Endianness формата : Big
Идентификатор кодека : 2000
Продолжительность : 1 ч. 33 м.
Вид битрейта : Постоянный
Битрейт : 192 Кбит/сек
Каналы : 2 канала
Расположение каналов : Front: L R
Частота : 48,0 КГц
Битовая глубина : 16 бит
Метод сжатия : С потерями
Размер потока : 128 Мбайт (9%)
Выравнивание : Разделение по промежуткам
Продолжительность промежутка : 42 мс. (1,00 видеокадр)
Время предзагрузки промежутка : 500 мс.

Аудио #2
Идентификатор : 2
Формат : AC-3
Формат/Информация : Audio Coding 3
Расширение режима : CM (complete main)
Параметр Endianness формата : Big
Идентификатор кодека : 2000
Продолжительность : 1 ч. 33 м.
Вид битрейта : Постоянный
Битрейт : 192 Кбит/сек
Каналы : 2 канала
Расположение каналов : Front: L R
Частота : 48,0 КГц
Битовая глубина : 16 бит
Метод сжатия : С потерями
Размер потока : 128 Мбайт (9%)
Выравнивание : Разделение по промежуткам
Продолжительность промежутка : 42 мс. (1,00 видеокадр)
Время предзагрузки промежутка : 500 мс.

Аудио #3
Идентификатор : 3
Формат : AC-3
Формат/Информация : Audio Coding 3
Расширение режима : CM (complete main)
Параметр Endianness формата : Big
Идентификатор кодека : 2000
Продолжительность : 1 ч. 33 м.
Вид битрейта : Постоянный
Битрейт : 192 Кбит/сек
Каналы : 2 канала
Расположение каналов : Front: L R
Частота : 48,0 КГц
Битовая глубина : 16 бит
Метод сжатия : С потерями
Размер потока : 128 Мбайт (9%)
Выравнивание : Разделение по промежуткам
Продолжительность промежутка : 42 мс. (1,00 видеокадр)
Время предзагрузки промежутка : 500 мс.



Релиз группа:Автор рипа:


_________________



реклама партнёра


Вернуться к началу
 Профиль Отправить личное сообщение  
 
   Похожие торренты   Автор   Торрент   Размер 
В этой теме нет новых непрочитанных сообщений. Забытая во тьме / Left in Darkness [Ужасы, триллер, мистика, 2006] DVDRip, Mvo [лицензия]

salma3

137 | 18

1.46 ГБ

В этой теме нет новых непрочитанных сообщений. Когти во тьме / Night Claws [ужасы, 2013] HDRip, Avo

salma3

196 | 19

1.45 ГБ

В этой теме нет новых непрочитанных сообщений. Глубоко во тьме / Deep in the Darkness (Колин Тейс) [Ужасы,Триллер, 2014] HDRip, dvo

Dracon

6 | 0

1.41 ГБ

В этой теме нет новых непрочитанных сообщений. Глубоко во тьме / Deep in the Darkness (Колин Тейс) [Ужасы,Триллер, 2014] BDRip 720p, dvo

Dracon

75 | 5

4.63 ГБ

В этой теме нет новых непрочитанных сообщений. Убийство во тьме / Mord i mørket [криминал, 1986] DVDRip, Mvo

salma3

16 | 3

1.37 ГБ

В этой теме нет новых непрочитанных сообщений. Волчица / Wilczyca [Ужасы, Драма, 1982] DVDRip, Dvo

salma3

9 | 3

1.46 ГБ

В этой теме нет новых непрочитанных сообщений. Инкубус / Incubus [ужасы, триллер, 1982] DVDRip, Avo

salma3

21 | 4

1.37 ГБ


Начать новую тему Ответить на тему  [ 1 сообщение ] 




Для Мосгорсуда, Роскомнадзора и рекламодателей:: mosgorsud-torrent[собачка]yandex.ru