Торрент файл
скачать торрент магнет ссылка Добавлен: 28 янв 2014, 22:40
Размер: 1.46 ГБ
Сидеров: 8
Личеров: 3
Статус: (salma3)
Автор

СообщениеДобавлено: 28 янв 2014, 22:40 

Не в сети
Супермодератор
Аватара пользователя
Дата регистрации:
15 фев 2012, 16:44
Возраст: 27
Спасибо: 5143 / 2090
Сообщения: 17513
Двурушник / Le faux-cul

Год выпуска: 1975
Жанр: комедия, криминал
Режиссер: Роже Анен

В ролях: Бернар Блие, Робер Оссейн, Марсель Далио, Сабин Глазер, Эдвард Микс, Роже Дюма, Роже Анен, Морю Траоре, Жорж Жере

Описание:
Президент одной африканской страны прибывает во Францию, чтобы договориться о поставках урана. Вокруг визита тут же возникает немалый шпионский ажиотаж, многим хочется сорвать намечающийся проект. Тогда французские спецслужбы решают привлечь к делу одного из своих худших агентов, надеясь что тот, в силу своей болтливости, невольно пустит врагов по ложному следу.



Страна: Франция, Германия (ФРГ)
Продолжительность: 01:26:43
Перевод: Авторский [одноголосый] [Антон Карповский]

Файл
Качество: DVDRip
Формат файла: AVI
Видео кодек: XviD
Аудио кодек: AC3
Видео: 704x384 (1,85:1), 25 fps, XviD MPEG-4 ~2201 kbps avg, 0.326 bit/pixel
Аудио: 48 kHz, AC3, 2 ch, Front: L R ~192.00 kbps avg

Общее
Полное имя : Dvurushnik.1975.XviD.DVDRip.AVO.avi
Формат : AVI
Формат/Информация : Audio Video Interleave
Размер файла : 1,46 Гбайт
Продолжительность : 1 ч. 26 м.
Общий поток : 2403 Кбит/сек
Название фильма : Dvurushnik.1975.XviD.DVDRip.AVO
Режиссёр : rip by MetionInka
Жанр : Crime/Comedy
Программа кодирования : VirtualDubMod 1.5.10.3 | http://www.virtualdub-fr.org || (build 2550/release)
Формат оригинала/Имя : Le faux-cul / 1975 / Roger Hanin
Правообладатель : Rutracker.org / RG TRU
Примечание : RusAVO [Карповский]

Видео
Идентификатор : 0
Формат : MPEG-4 Visual
Профиль формата : Advanced Simple@L5
Параметр BVOP формата : 2
Параметр QPel формата : Нет
Параметр GMC формата : Без точки перехода
Параметр матрицы формата : Выборочная
Идентификатор кодека : XVID
Идентификатор кодека/Подсказка : XviD
Продолжительность : 1 ч. 26 м.
Битрейт : 2201 Кбит/сек
Ширина : 704 пикселя
Высота : 384 пикселя
Соотношение сторон : 1,85:1
Частота кадров : 25,000 кадров/сек
Цветовое пространство : YUV
Субдискретизация насыщенности : 4:2:0
Битовая глубина : 8 бит
Тип развёртки : Прогрессивная
Метод сжатия : С потерями
Бит/(Пиксели*Кадры) : 0.326
Размер потока : 1,33 Гбайт (92%)
Библиотека кодирования : XviD 73

Аудио
Идентификатор : 1
Формат : AC-3
Формат/Информация : Audio Coding 3
Расширение режима : CM (complete main)
Параметр Endianness формата : Big
Идентификатор кодека : 2000
Продолжительность : 1 ч. 26 м.
Вид битрейта : Постоянный
Битрейт : 192 Кбит/сек
Каналы : 2 канала
Расположение каналов : Front: L R
Частота : 48,0 КГц
Битовая глубина : 16 бит
Метод сжатия : С потерями
Размер потока : 119 Мбайт (8%)
Выравнивание : Разделение по промежуткам
Продолжительность промежутка : 40 мс. (1,00 видеокадр)
Время предзагрузки промежутка : 500 мс.








_________________



реклама партнёра


Вернуться к началу
 Профиль Отправить личное сообщение  
 
   Похожие торренты   Автор   Торрент   Размер 
В этой теме нет новых непрочитанных сообщений. Кот и мышь / Le chat et la souris [драма, комедия, криминал, 1975] DVDRip, Mvo

salma3

106 | 7

1.46 ГБ

В этой теме нет новых непрочитанных сообщений. Сумасшедшая мамаша / Crazy Mama [боевик, драма, комедия, криминал, 1975] DVDRip, Dvo

salma3

20 | 3

1.37 ГБ

В этой теме нет новых непрочитанных сообщений. Девчонка, которую убить мало / Holka na zabití [криминал, комедия, детектив, 1975] DVDRip, Avo

salma3

26 | 3

1.46 ГБ

В этой теме нет новых непрочитанных сообщений. Брэнниган / Brannigan [боевик, комедия, криминал, 1975] BDRip, Mvo

salma3

34 | 3

1.45 ГБ

В этой теме нет новых непрочитанных сообщений. Состояние / The Fortune [комедия, мелодрама, криминал, 1975] BDRip 1080p, Mvo+Sub

salma3

23 | 0

7.06 ГБ

В этой теме нет новых непрочитанных сообщений. Голые марионетки в подполье / Downtown - Die nackten Puppen der Unterwelt (Хесус Франко) [1975, комедия, криминал, эротика, HDRip] avo

Nickolas3435

18 | 2

700.42 МБ

В этой теме нет новых непрочитанных сообщений. Пятница Фостер / Friday Foster [боевик, триллер, драма, мелодрама, криминал, 1975] DVDRip, Dvo [НТВ+]

salma3

8 | 2

1.32 ГБ


Начать новую тему Ответить на тему  [ 1 сообщение ] 




Для Мосгорсуда, Роскомнадзора и рекламодателей:: mosgorsud-torrent[собачка]yandex.ru