Торрент файл
скачать торрент магнет ссылка Добавлен: 28 янв 2014, 20:09
Размер: 1.46 ГБ
Сидеров: 55
Личеров: 4
Статус: (Dracon)
Автор

СообщениеДобавлено: 28 янв 2014, 20:09 

Не в сети
Зам. Админа
Аватара пользователя
Дата регистрации:
02 дек 2010, 12:39
Спасибо: 12461 / 214
Сообщения: 27968
Год выпуска: 2013
Страна: США
Жанр: драма, биография
Продолжительность: 01:25:01
Перевод: Профессиональный (одноголосый) (Сергей Бельчиков)
Режиссер: Райан Куглер / Ryan Coogler

В ролях: Майкл Б. Джордан, Мелони Диаз, Кевин Дюран, Октавия Спенсер, Чад Майкл Мюррэй, Ана О’Райли, Ричи Стефенс, Ариана Нил, Махал Монтойя, Тресса Олер
Описание: Оскар Грант был обычным жизнерадостным парнем двадцати двух лет от роду. Он обожал свою дочь, был примерным сыном, изменял, но смог помириться с женой, ещё он любил потрепаться с друзьями во дворе своего родного района...
MPAA: R - Лицам до 17 лет обязательно присутствие взрослого


Качество: BDRip | sample
Контейнер: AVI
Исходник: BDRemux
Видео: XviD, 688x384 (16:9), 1994 kbps, 23,976 fps, 0,315 bpp
Аудио: AC3 / 5.1 / 48 kHz / 448 kbps / 16 bit



General
Complete name : D:my.ripFruitvale.Station.2013.BDRip.[New-Team].avi
Format : AVI
Format/Info : Audio Video Interleave
File size : 1.46 GiB
Duration : 1h 25mn
Overall bit rate : 2 452 Kbps
Writing application : VirtualDubMod 1.5.10.3 | http://www.virtualdub-fr.org || (build 2550/release)
Writing library : VirtualDubMod build 2550/release

Video
ID : 0
Format : MPEG-4 Visual
Format profile : Advanced Simple@L5
Format settings, BVOP : 1
Format settings, QPel : No
Format settings, GMC : No warppoints
Format settings, Matrix : Custom
Codec ID : XVID
Codec ID/Hint : XviD
Duration : 1h 25mn
Bit rate : 1 994 Kbps
Width : 688 pixels
Height : 384 pixels
Display aspect ratio : 16:9
Frame rate : 23.976 fps
Color space : YUV
Chroma subsampling : 4:2:0
Bit depth : 8 bits
Scan type : Progressive
Compression mode : Lossy
Bits/(Pixel*Frame) : 0.315
Stream size : 1.18 GiB (81%)
Writing library : XviD 73

Audio
ID : 1
Format : AC-3
Format/Info : Audio Coding 3
Mode extension : CM (complete main)
Codec ID : 2000
Duration : 1h 25mn
Bit rate mode : Constant
Bit rate : 448 Kbps
Channel(s) : 6 channels
Channel positions : Front: L C R, Side: L R, LFE
Sampling rate : 48.0 KHz
Bit depth : 16 bits
Compression mode : Lossy
Stream size : 272 MiB (18%)
Alignment : Split accross interleaves
Interleave, duration : 42 ms (1.00 video frame)
Interleave, preload duration : 500 ms





реклама партнёра


Вернуться к началу
 Профиль  
 
   Похожие торренты   Автор   Торрент   Размер 
В этой теме нет новых непрочитанных сообщений. Станция «Фрутвейл» / Fruitvale Station [Драма, биография, 2013] BDRip 720p, avo+sub

Dracon

55 | 21

4.73 ГБ

В этой теме нет новых непрочитанных сообщений. Станция «Фрутвейл» / Fruitvale Station [Драма, биография, 2013] BDRip 720p, Avo+Sub

Dracon

12 | 3

5.81 ГБ

В этой теме нет новых непрочитанных сообщений. Станция Фрутвейл / Fruitvale Station (Райан Куглер / Ryan Coogler) [2013г., драма, биография, HDRip] avo

Alfredovich

313 | 15

1.37 ГБ

В этой теме нет новых непрочитанных сообщений. Станция Джима / Station Jim [драма, семейный, 2001] DVDRip, Sub

salma3

11 | 2

1.46 ГБ

В этой теме нет новых непрочитанных сообщений. Космическая станция 76 / Space Station 76 [фантастика, драма, комедия, 2014] WEB-DL 720p, Mvo [iTunes]

Dracon

394 | 12

2.89 ГБ

В этой теме нет новых непрочитанных сообщений. Космическая станция 76 / Space Station 76 [фантастика, драма, комедия, 2014] WEB-DLRip, Mvo [iTunes]

Dracon

457 | 12

1.37 ГБ

В этой теме нет новых непрочитанных сообщений. Последнее воскресение / The Last Station [драма, мелодрама, биография, 2009] BDRip-AVC, Dub+Sub

salma3

37 | 2

1.45 ГБ


Начать новую тему Ответить на тему  [ 1 сообщение ] 




Для Мосгорсуда, Роскомнадзора и рекламодателей:: mosgorsud-torrent[собачка]yandex.ru