Торрент файл
скачать торрент магнет ссылка Добавлен: 25 янв 2014, 01:00
Размер: 1.27 ГБ
Сидеров: 6
Личеров: 4
Статус: (salma3)
Автор

СообщениеДобавлено: 25 янв 2014, 01:00 

Не в сети
Супермодератор
Аватара пользователя
Дата регистрации:
15 фев 2012, 16:44
Возраст: 28
Спасибо: 6477 / 2129
Сообщения: 41080
Масло в огонь / De l'huile sur le feu

Год выхода: 2011
Жанр: Kомедия
Режиссер: Николас Бенаму

В ролях: Надер Буссандель, Венсан Лакост, Тиен Шу, Azzedine Benamara, Алис Белаиди, Фатсах Буяхмед, Бан Хэй Мин, Юбай Чжан, Эмир Сегир, Paul Sheng

О фильме:
Это однажды случилось в Бельвиле, два ресторана встали друг против друга: «Бербер Кинг» семьи Шуффри и «Империя дракона» семьи Зи. Все шло хорошо, до тех пор пока Самир Шуффри не обвинил месье Зи в том, что он съел его собаку.



Страна: Франция
Продолжительность: 01:26:43
Перевод: Профессиональный [многоголосый] [НТВ+]

Файл
Качество: SATRip
Формат файла: AVI
Видео кодек: XviD
Аудио кодек: AC3
Видео: 1900 Кбит/с, 720x400, 25.000 кадр/с
Звук: Русский (АС3, 2 ch, 192 Кбит/с)


Семпл

Общее
Полное имя : Maslo.v.ogon.2011.SATRip.MediaClub.avi
Формат : AVI
Формат/Информация : Audio Video Interleave
Размер файла : 1,27 Гбайт
Продолжительность : 1 ч. 26 м.
Общий поток : 2101 Кбит/сек
Название фильма : MediaClub
Программа кодирования : VirtualDubMod 1.5.10.2 (build 2540/release)
Библиотека кодирования : VirtualDubMod build 2540/release

Видео
Идентификатор : 0
Формат : MPEG-4 Visual
Профиль формата : Advanced Simple@L5
Параметр BVOP формата : 2
Параметр QPel формата : Нет
Параметр GMC формата : Без точки перехода
Параметр матрицы формата : Default (MPEG)
Идентификатор кодека : XVID
Идентификатор кодека/Подсказка : XviD
Продолжительность : 1 ч. 26 м.
Битрейт : 1900 Кбит/сек
Ширина : 720 пикселей
Высота : 400 пикселей
Соотношение сторон : 16:9
Частота кадров : 25,000 кадров/сек
Цветовое пространство : YUV
Субдискретизация насыщенности : 4:2:0
Битовая глубина : 8 бит
Тип развёртки : Прогрессивная
Метод сжатия : С потерями
Бит/(Пиксели*Кадры) : 0.264
Размер потока : 1,15 Гбайт (90%)
Библиотека кодирования : XviD 65

Аудио
Идентификатор : 1
Формат : AC-3
Формат/Информация : Audio Coding 3
Расширение режима : CM (complete main)
Параметр Endianness формата : Big
Идентификатор кодека : 2000
Продолжительность : 1 ч. 26 м.
Вид битрейта : Постоянный
Битрейт : 192 Кбит/сек
Каналы : 2 канала
Расположение каналов : Front: L R
Частота : 48,0 КГц
Битовая глубина : 16 бит
Метод сжатия : С потерями
Размер потока : 119 Мбайт (9%)
Выравнивание : Разделение по промежуткам
Продолжительность промежутка : 40 мс. (1,00 видеокадр)
Время предзагрузки промежутка : 500 мс.


Релиз от:


_________________
Проголосуй за трекер Открытый торрент трекер - RUS-MEDIA.ORG

Проголосуй Открытый торрент трекер - RUS-MEDIA.ORG



реклама партнёра


Вернуться к началу
 Профиль Отправить личное сообщение  
 
   Похожие торренты   Автор   Торрент   Размер 
В этой теме нет новых непрочитанных сообщений. Самолеты: Огонь и вода / Planes: Fire and RescueСамолеты: Огонь и вода / Planes: Fire and Rescue [мультфильм, комедия, приключения, семейный, 2014] HDRip, Dub [iTunes]

Dracon

32 | 3

1.37 ГБ

В этой теме нет новых непрочитанных сообщений. Самолеты: Огонь и вода / Planes: Fire and Rescue Самолеты: Огонь и вода / Planes: Fire and Rescue [мультфильм, комедия, приключения, семейный, 2014] BDRip 720p, Dub [iTunes]

Dracon

4 | 2

4.79 ГБ

В этой теме нет новых непрочитанных сообщений. Самолеты: Огонь и вода / Planes: Fire and Rescue Самолеты: Огонь и вода / Planes: Fire and Rescue [мультфильм, комедия, приключения, семейный, 2014] Blu-ray 1080p, Dub+Sub

Dracon

15 | 5

29.47 ГБ

В этой теме нет новых непрочитанных сообщений. Крепкие тела / Hardbodies [Kомедия, 1984] HDRip, Mvo [СТС]

salma3

0 | 0

1.37 ГБ

В этой теме нет новых непрочитанных сообщений. Доктор Голливуд / Doc Hollywood [Kомедия, мелодрама, 1991] HDTVRip, Mvo [КПК]

salma3

0 | 4

436.91 МБ

В этой теме нет новых непрочитанных сообщений. Взломщики / Медвежатники / Breaking In [Kомедия, приключения, 1989] DVDRip, Mvo

salma3

11 | 3

698.25 МБ

В этой теме нет новых непрочитанных сообщений. Настин Чай - Огонь Свободы [2012, Rock, MP3]

PriZraK

0 | 1

81.54 МБ


Начать новую тему Ответить на тему  [ 1 сообщение ] 




Для Мосгорсуда, Роскомнадзора и рекламодателей:: mosgorsud-torrent[собачка]yandex.ru