Торрент файл
скачать торрент магнет ссылка Добавлен: 22 янв 2014, 14:57
Размер: 1.46 ГБ
Сидеров: 13
Личеров: 4
Статус: (salma3)
Автор

СообщениеДобавлено: 22 янв 2014, 14:57 

Не в сети
Супермодератор
Аватара пользователя
Дата регистрации:
15 фев 2012, 16:44
Возраст: 28
Спасибо: 6584 / 2144
Сообщения: 44064
Меня зовут Никто / Il mio nome e Nessuno

Год выпуска: 1973
Жанр: комедия, вестерн
Режиссер: Тонино Валерии

В ролях: Теренс Хилл, Генри Фонда, Жан Мартен, Р.Г. Армстронг, Карл Браун, Лео Гордон, Стив Кэнэли, Джеффри Льюис, Нил Саммерс, Пьеро Лулли

Описание: Шериф Борегард, самый меткий и быстрый стрелок на Диком Западе, мечтал лишь об одном — уехать в Европу и зажить спокойной жизнью. «Папа, — как-то спросил мальчик у папы, — а может кто-нибудь стрелять быстрее, чем Джек Борегард?» «Никто», — ответил папа. И однажды появился веселый молодой человек, который знал все о шерифе, не сводил с него восхищенных глаз и следовал за ним, как тень. «Кто ты», — спросил его Борегард. «Да так, НИКТО», — пожав плечами, ответил весельчак… «Никто» предложил шерифу уйти на покой красиво — истребить неуловимую «Дикую банду» (почти 150 человек), а потом «умереть», инсценировав свою смерть…



Страна: Франция, Италия, Германия
Продолжительность: 01:55:36
Перевод: Профессиональный (многоголосый, закадровый)

Файл
Качество: BDRip
Формат файла: AVI
Видео кодек: XviD
Аудио кодек: AC3
Видео: 720x304 (2.35:1), 23.976 fps, XviD MPEG-4 ~1610 kbps avg, 0.31 bit/pixel
Аудио: 48 kHz, AC3 Dolby Digital, 2/0 (L,R) ch, ~192.00 kbps avg


General
Complete name : I:\My Name Is Nobody 1973 BDRip 1.46.avi
Format : AVI
Format/Info : Audio Video Interleave
File size : 1.46 GiB
Duration : 1h 55mn
Overall bit rate : 1 812 Kbps
Writing application : VirtualDubModRus 1.5.10.2 (build 2542/release)
Writing library : VirtualDubMod build 2542/release

Video
ID : 0
Format : MPEG-4 Visual
Format profile : Advanced Simple@L5
Format settings, BVOP : 1
Format settings, QPel : No
Format settings, GMC : No warppoints
Format settings, Matrix : Default (H.263)
Muxing mode : Packed bitstream
Codec ID : XVID
Codec ID/Hint : XviD
Duration : 1h 55mn
Bit rate : 1 610 Kbps
Width : 720 pixels
Height : 304 pixels
Display aspect ratio : 2.35:1
Frame rate : 23.976 fps
Color space : YUV
Chroma subsampling : 4:2:0
Bit depth : 8 bits
Scan type : Progressive
Compression mode : Lossy
Bits/(Pixel*Frame) : 0.307
Stream size : 1.30 GiB (89%)
Writing library : XviD 57

Audio
ID : 1
Format : AC-3
Format/Info : Audio Coding 3
Mode extension : CM (complete main)
Format settings, Endianness : Big
Codec ID : 2000
Duration : 1h 55mn
Bit rate mode : Constant
Bit rate : 192 Kbps
Channel(s) : 2 channels
Channel positions : Front: L R
Sampling rate : 48.0 KHz
Bit depth : 16 bits
Compression mode : Lossy
Stream size : 159 MiB (11%)
Alignment : Split accross interleaves
Interleave, duration : 42 ms (1.00 video frame)
Interleave, preload duration : 500 ms








Релиз от:


_________________
Проголосуй за трекер Открытый торрент трекер - RUS-MEDIA.ORG

Проголосуй Открытый торрент трекер - RUS-MEDIA.ORG



реклама партнёра


Вернуться к началу
 Профиль Отправить личное сообщение  
 
   Похожие торренты   Автор   Торрент   Размер 
В этой теме нет новых непрочитанных сообщений. Меня зовут Никто / My Name Is Nobody / Il mio nome è Nessuno [Вестерн, комедия, 1973] Blu-ray 1080p, Mvo

salma3

19 | 41

37.13 ГБ

В этой теме нет новых непрочитанных сообщений. Меня зовут Троица / Lo chiamavano Trinita / They Call Me Trinity [комедия, вестерн, 1970] BDRip 720p, Mvo+Dvo+Avo+Sub

salma3

67 | 42

7.95 ГБ

В этой теме нет новых непрочитанных сообщений. Западный мир / Westworld [Фантастика, боевик, вестерн, 1973] BDRip 720p, Mvo+Avo+Sub

salma3

55 | 3

3.71 ГБ

В этой теме нет новых непрочитанных сообщений. Смертельные преследователи / The Deadly Trackers [Драма, вестерн, 1973] BDRip 1080p, Mvo

salma3

32 | 18

15.69 ГБ

В этой теме нет новых непрочитанных сообщений. Кони Вальдеса / Valdez, il mezzosangue [боевик, драма, приключения, вестерн, 1973] BDRip, Mvo

salma3

141 | 30

1.45 ГБ

В этой теме нет новых непрочитанных сообщений. Здравствуйте, меня зовут Дорис / Hello, My Name Is Doris [Драма, Мелодрама, Комедия, 2015] BDRip 720p, Mvo

salma3

48 | 3

3.86 ГБ

В этой теме нет новых непрочитанных сообщений. Апачи / Apachen [Вестерн, приключения, 1973] Blu-ray Custom 1080i, Dub+Sub

salma3

54 | 25

22.48 ГБ


Начать новую тему Ответить на тему  [ 1 сообщение ] 




Для Мосгорсуда, Роскомнадзора и рекламодателей:: mosgorsud-torrent[собачка]yandex.ru