Торрент файл
скачать торрент магнет ссылка Добавлен: 21 янв 2014, 21:11
Размер: 1.44 ГБ
Сидеров: 126
Личеров: 4
Статус: (salma3)
Автор

СообщениеДобавлено: 21 янв 2014, 21:11 

Не в сети
Супермодератор
Аватара пользователя
Дата регистрации:
15 фев 2012, 16:44
Возраст: 27
Спасибо: 5132 / 2089
Сообщения: 17377
Свидание вслепую / Blind Date

Год выхода: 1987
Жанр: Мелодрама, комедия
Режиссер: Блэйк Эдвардс

В ролях: Ким Бейсингер, Брюс Уиллис, Джон Ларрокетт, Уильям Дэниелс, Джордж Коу, Марк Блум, Фил Хартмен, Стефани Фэраси, Элис Херсон, Грэм Старк, Джойс Ван Пэттен, Джинни Илайас, Херб Тэнни, Джорганн Джонсон, Саб Симоно, Момо Ясима, Армин Шимерман, Брайан Джордж, Эрнест Харада, Эмма Уолтон, Илэйн Уилкс, Сьюзэн Лентини, Бэрри Собель, Арлин Лорр, Тимоти Стэк, Джек Гвиллим, Диана Беллами, Сет Ислер, Пол Карафотс, Боб Эри, Дон Спаркс, Билл Маркус, Майк Дженовезе, Джон Деми, Джон Смет, Джулия Дженнингс, Дик Дурок

О фильме:
Уолтер Дэвис – трудоголик, и вполне естественно, что все свое внимание он уделяет работе, а не личной жизни или внешности. Для очень важной деловой встречи в ресторане с новым партнером из Японии, Уолтеру потребовалась спутница. Его брат посоветовал взять с собой очаровательную Надю, кузину его жены. Но есть одно но: Наде нельзя пить… совсем! К сожалению, это предупреждение Уолтер пропустил мимо ушей, и потерял в этот роковой для него вечер то немногое, что у него есть: службу, машину, а отчасти и здоровье. Но взамен приобрел нечно очень редкое - себя! И - любовь очаровательной девушки впридачу...



Страна: США
Продолжительность: 01:35:14
Перевод1: Дублированный [Варус-Видео]
Перевод2: Профессиональный [многоголосый] [НТВ+]
Перевод3: Авторский [А.Михалев]

Файл
Качество: BDRip
Формат файла: AVI
Видео кодек: XviD
Аудио кодек: AC3
Видео: 720x304, 23.976 fps, 1569 kbps
Аудио 1: AC3, 2 ch, 48.0 khz, 192.0 kbps [Дублированный]
Аудио 2: AC3, 2 ch, 48.0 khz, 192.0 kbps [многоголосый]
Аудио 3: AC3, 2 ch, 48.0 khz, 192.0 kbps [Авторский]


Общее
Полное имя : Blind.Date.1987.BDRip.3xrus.avi
Формат : AVI
Формат/Информация : Audio Video Interleave
Размер файла : 1,44 Гбайт
Продолжительность : 1 ч. 35 м.
Общий поток : 2164 Кбит/сек
Программа кодирования : VirtualDubMod 1.5.10.2 (build 2542/release)
Библиотека кодирования : VirtualDubMod build 2542/release

Видео
Идентификатор : 0
Формат : MPEG-4 Visual
Профиль формата : Advanced Simple@L5
Параметр BVOP формата : 1
Параметр QPel формата : Нет
Параметр GMC формата : Без точки перехода
Параметр матрицы формата : Выборочная
Идентификатор кодека : XVID
Идентификатор кодека/Подсказка : XviD
Продолжительность : 1 ч. 35 м.
Битрейт : 1569 Кбит/сек
Ширина : 720 пикс.
Высота : 304 пикс.
Соотношение сторон : 2,35:1
Частота кадров : 23,976 кадр/сек
Цветовое пространство : YUV
Подвыборка цветности : 4:2:0
Битовая глубина : 8 бит
Тип развёртки : Прогрессивная
Метод сжатия : С потерями
Бит/(Пиксели*Кадры) : 0.299
Размер потока : 1,04 Гбайт (73%)
Библиотека кодирования : XviD 73

Аудио #1
Идентификатор : 1
Формат : AC-3
Формат/Информация : Audio Coding 3
Профиль формата : Dolby Digital
Расширение режима : CM (complete main)
Идентификатор кодека : 2000
Продолжительность : 1 ч. 35 м.
Вид битрейта : Постоянный
Битрейт : 192 Кбит/сек
Канал(ы) : 2 канала(ов)
Расположение каналов : Front: L R
Частота : 48,0 КГц
Битовая глубина : 16 бит
Метод сжатия : С потерями
Размер потока : 131 Мбайт (9%)
Выравнивание : Разделение по промежуткам
Продолжительность промежутка : 42 мс. (1,00 видеокадр)
Время предзагрузки промежутка : 500 ms

Аудио #2
Идентификатор : 2
Формат : AC-3
Формат/Информация : Audio Coding 3
Профиль формата : Dolby Digital
Расширение режима : CM (complete main)
Идентификатор кодека : 2000
Продолжительность : 1 ч. 35 м.
Вид битрейта : Постоянный
Битрейт : 192 Кбит/сек
Канал(ы) : 2 канала(ов)
Расположение каналов : Front: L R
Частота : 48,0 КГц
Битовая глубина : 16 бит
Метод сжатия : С потерями
Размер потока : 131 Мбайт (9%)
Выравнивание : Разделение по промежуткам
Продолжительность промежутка : 42 мс. (1,00 видеокадр)
Время предзагрузки промежутка : 500 ms

Аудио #3
Идентификатор : 3
Формат : AC-3
Формат/Информация : Audio Coding 3
Профиль формата : Dolby Digital
Расширение режима : CM (complete main)
Идентификатор кодека : 2000
Продолжительность : 1 ч. 35 м.
Вид битрейта : Постоянный
Битрейт : 192 Кбит/сек
Канал(ы) : 2 канала(ов)
Расположение каналов : Front: L R
Частота : 48,0 КГц
Битовая глубина : 16 бит
Метод сжатия : С потерями
Размер потока : 131 Мбайт (9%)
Выравнивание : Разделение по промежуткам
Продолжительность промежутка : 42 мс. (1,00 видеокадр)
Время предзагрузки промежутка : 500 ms


Релиз от: Leon-masl


_________________



реклама партнёра


Вернуться к началу
 Профиль Отправить личное сообщение  
 
   Похожие торренты   Автор   Торрент   Размер 
В этой теме нет новых непрочитанных сообщений. Это не свидание / It's Not a Date [драма, мелодрама, комедия, 2014] WEB-DLRip, Mvo

salma3

164 | 12

1.46 ГБ

В этой теме нет новых непрочитанных сообщений. Вслепую / Blind Side [триллер, 1993] DVDRip-AVC, Avo

salma3

38 | 25

2.66 ГБ

В этой теме нет новых непрочитанных сообщений. Вслепую / Blind Side [Триллер, криминал, 1993] DVDRip, Avo

salma3

33 | 7

1.45 ГБ

В этой теме нет новых непрочитанных сообщений. Краденое свидание / Man Up [мелодрама, комедия, 2015] BDRip 720p, Mvo+Sub [iTunes]

salma3

539 | 85

6.43 ГБ

В этой теме нет новых непрочитанных сообщений. Первое свидание Райли (мультфильм, короткометражка, мелодрама, комедия, семейный, 2015) BDRip 720p | D

marya111

95 | 12

185.77 МБ

В этой теме нет новых непрочитанных сообщений. Мой друг - гей / Date and Switch [комедия, 2014] BDRip 720p, avo

Dracon

62 | 6

4.49 ГБ

В этой теме нет новых непрочитанных сообщений. Свидание моей мечты / Employee of the Month [мелодрама, комедия, 2006] BDRemux 1080p, Dub

salma3

54 | 31

16.85 ГБ


Начать новую тему Ответить на тему  [ 1 сообщение ] 




Для Мосгорсуда, Роскомнадзора и рекламодателей:: mosgorsud-torrent[собачка]yandex.ru