Торрент файл
скачать торрент магнет ссылка Добавлен: 19 янв 2014, 01:03
Размер: 1.45 ГБ
Сидеров: 33
Личеров: 2
Статус: (salma3)
Автор

СообщениеДобавлено: 19 янв 2014, 01:03 

Не в сети
Супермодератор
Аватара пользователя
Дата регистрации:
15 фев 2012, 16:44
Возраст: 28
Спасибо: 6593 / 2145
Сообщения: 44208
За кадром... / In a World...

Год выхода: 2013
Жанр: Комедия
Режиссер: Лэйк Белл

В ролях: Лэйк Белл, Роб Кордри, Александра Холден, Ева Лонгория, Кен Марино, Деметри Мартин, Фред Меламед, Тиг Нотаро, Ник Офферман, Михаэлла Уоткинс

О фильме:
Завязка сюжета могла прийти в голову только человеку с кинематографическим стажем: Лэйк играет тренера по речи и специалиста по озвучке трейлеров Кэрол. Отец ее героини Сэм Сото — звезда цеха и домашний тиран, отказывающий Кэрол от отчего дома, дабы освободить место для своей 30-летней подружки. Война отцов и детей переносится на оба фронта — личный и профессиональный — когда Кэрол вступает в бой за право озвучивать трейлеры «Амазонских игр».



Страна: США / 3311 Productions, In A World, Team G
Продолжительность: 01:32:57
Перевод: Профессиональное (многоголосное) [лицензия]

Файл
Качество: BDRip-AVC
Формат файла: AVC
Видео кодек: x264
Аудио кодек: AC3
Видео: MPEG-4 AVC, 1467 Кбит/с, 1024х426, 23.976 кадр/с
Звук: Русский, английский (AC3, 6 ch, 384 Кбит/с)
Субтитры: Английские

Семпл

x264 [info]: frame I:942 Avg QP:13.84 size: 44181
x264 [info]: frame P:26156 Avg QP:14.98 size: 18757
x264 [info]: frame B:106630 Avg QP:16.88 size: 4505

Format : Matroska
Format version : Version 4 / Version 2
File size : 1.45 GiB
Duration : 1h 32mn
Overall bit rate : 2 237 Kbps
Movie name : -=MediaClub - Odessit=-
Encoded date : UTC 2014-01-18 18:13:47
Writing application : mkvmerge v6.1.0 ('Old Devil') built on Mar 4 2013 09:10:42
Writing library : libebml v1.3.0 + libmatroska v1.4.0

Video
ID : 1
Format : AVC
Format/Info : Advanced Video Codec
Format profile : High@L4.1
Format settings, CABAC : Yes
Format settings, ReFrames : 11 frames
Codec ID : V_MPEG4/ISO/AVC
Duration : 1h 32mn
Bit rate : 1 467 Kbps
Width : 1 024 pixels
Height : 426 pixels
Display aspect ratio : 2.40:1
Frame rate : 23.976 fps
Color space : YUV
Chroma subsampling : 4:2:0
Bit depth : 8 bits
Scan type : Progressive
Bits/(Pixel*Frame) : 0.140
Stream size : 947 MiB (64%)
Writing library : x264 core 130 r2273 b3065e6
Encoding settings : cabac=1 / ref=11 / deblock=1:-2:-2 / analyse=0x3:0x133 / me=umh / subme=11 / psy=1 / psy_rd=1.00:0.20 / mixed_ref=1 / me_range=48 / chroma_me=1 / trellis=2 / 8x8dct=1 / cqm=0 / deadzone=21,11 / fast_pskip=0 / chroma_qp_offset=-3 / threads=6 / lookahead_threads=1 / sliced_threads=0 / nr=0 / decimate=0 / interlaced=0 / bluray_compat=0 / constrained_intra=0 / bframes=10 / b_pyramid=2 / b_adapt=2 / b_bias=0 / direct=3 / weightb=1 / open_gop=0 / weightp=2 / keyint=240 / keyint_min=23 / scenecut=40 / intra_refresh=0 / rc=2pass / mbtree=0 / bitrate=1467 / ratetol=1.0 / qcomp=0.60 / qpmin=0 / qpmax=69 / qpstep=4 / cplxblur=20.0 / qblur=0.5 / ip_ratio=1.40 / pb_ratio=1.30 / aq=1:1.00
Language : English

Audio #1
ID : 2
Format : AC-3
Format/Info : Audio Coding 3
Mode extension : CM (complete main)
Codec ID : A_AC3
Duration : 1h 32mn
Bit rate mode : Constant
Bit rate : 384 Kbps
Channel(s) : 6 channels
Channel positions : Front: L C R, Side: L R, LFE
Sampling rate : 48.0 KHz
Bit depth : 16 bits
Compression mode : Lossy
Stream size : 255 MiB (17%)
Title : Профессиональный многоголосый
Language : Russian

Audio #2
ID : 3
Format : AC-3
Format/Info : Audio Coding 3
Mode extension : CM (complete main)
Codec ID : A_AC3
Duration : 1h 32mn
Bit rate mode : Constant
Bit rate : 384 Kbps
Channel(s) : 6 channels
Channel positions : Front: L C R, Side: L R, LFE
Sampling rate : 48.0 KHz
Bit depth : 16 bits
Compression mode : Lossy
Stream size : 255 MiB (17%)
Language : English

Text #1
ID : 4
Format : UTF-8
Codec ID : S_TEXT/UTF8
Codec ID/Info : UTF-8 Plain Text
Title : Forced
Language : English

Text #2
ID : 5
Format : UTF-8
Codec ID : S_TEXT/UTF8
Codec ID/Info : UTF-8 Plain Text
Language : English

Menu
00:00:00.000 : en:00:00:00.000
00:10:13.738 : en:00:10:13.738
00:16:15.474 : en:00:16:15.474
00:21:09.185 : en:00:21:09.185
00:25:32.573 : en:00:25:32.573
00:30:58.565 : en:00:30:58.565
00:37:32.750 : en:00:37:32.750
00:43:17.762 : en:00:43:17.762
00:47:28.345 : en:00:47:28.345
00:53:36.797 : en:00:53:36.797
01:01:49.706 : en:01:01:49.706
01:05:59.455 : en:01:05:59.455
01:09:57.527 : en:01:09:57.527
01:14:01.354 : en:01:14:01.354
01:18:09.143 : en:01:18:09.143
01:22:22.312 : en:01:22:22.312


Релиз от: |


_________________
Проголосуй за трекер Открытый торрент трекер - RUS-MEDIA.ORG

Проголосуй Открытый торрент трекер - RUS-MEDIA.ORG



реклама партнёра


Вернуться к началу
 Профиль Отправить личное сообщение  
 
   Похожие торренты   Автор   Торрент   Размер 
В этой теме нет новых непрочитанных сообщений. За кадром... / In a World... (Лэйк Белл) [2013, комедия, НDRip | Лицензия] mvo

Nickolas3435

50 | 4

744.92 МБ

В этой теме нет новых непрочитанных сообщений. Other World [Arcade, 2013-2015] [Лицензия]

Tobus

0 | 1

33.84 МБ

В этой теме нет новых непрочитанных сообщений. Зачётный препод / Fack ju Gohte [комедия, 2013] BDRip 720p, Dub [Лицензия]

Dracon

33 | 4

7.99 ГБ

В этой теме нет новых непрочитанных сообщений. Невероятные приключения кота / Oggy et les cafards [комедия, 2013] BDRip [Лицензия]

salma3

148 | 9

1.45 ГБ

В этой теме нет новых непрочитанных сообщений. Очень страшное кино 5 / Scary Movie 5 [комедия, 2013] BDRip, Dub [Лицензия]

salma3

152 | 20

1.45 ГБ

В этой теме нет новых непрочитанных сообщений. Инструкции не прилагаются / No se Aceptan Devoluciones [драма, комедия, 2013] BDRip 720p, Mvo+Sub [Лицензия]

Dracon

132 | 4

4.26 ГБ

В этой теме нет новых непрочитанных сообщений. Люблю твою жену / The Right Kind of Wrong [мелодрама, комедия, 2013] BDRip 720p, Dub [лицензия]

Dracon

128 | 8

4.24 ГБ


Начать новую тему Ответить на тему  [ 1 сообщение ] 




Для Мосгорсуда, Роскомнадзора и рекламодателей:: mosgorsud-torrent[собачка]yandex.ru