Торрент файл
скачать торрент магнет ссылка Добавлен: 17 янв 2014, 12:56
Размер: 1.53 ГБ
Сидеров: 4
Личеров: 3
Статус: (salma3)
Автор

СообщениеДобавлено: 17 янв 2014, 12:56 

Не в сети
Супермодератор
Аватара пользователя
Дата регистрации:
15 фев 2012, 16:44
Возраст: 28
Спасибо: 6589 / 2145
Сообщения: 44094
Бенгальская бригада / Bengal Brigade

Год выпуска: 1954
Жанр: приключения, военный
Режиссер: Ласло Бенедек

В ролях: Рок Хадсон, Арлин Даль, Урсула Тисс, Торин Тэтчер, Арнольд Мосс, Дэн О`Херлихи, Майкл Ансара, Гарольд Гордон, Шепард Менкен, Леонард Стронг, Лесли Дэнисон, Джон Додсворт, Рамсей Хилл, Марта Альмейда, Хай Анзелл, Хью Босвелл, Руди Дэна, Сэм Харрис, Артур Кендалл, Леонард Мьюди, Майк Портанова, Джек Рэйне, Уильям Бенегал Рау, Чарльз Вагенхейм, Мэл Уэллс

Описание:
Существовало пророчество, что господство англичан в Индии продлится сто лет. Приближение годовщины столетия британского правления привело к растущему беспокойству и периодическим восстаниям среди туземцев. В рождество 1856 года Знаменитый Бенгальский стрелковый полк индийских сипаев под командованием британских офицеров вёл осаду горной крепости мятежников Сири Натха на перевале Малаканд. Капитан Клейборн, спасая солдат своей роты, самовольно повёл на штурм основные силы британцев, и хотя добился победы, был изгнан из армии, приобретя в результате определённое доверие среди индусов. К нему поступают сведения о ведущейся агитации среди сипаев в связи с принятием на вооружение новых патронов, смазанных как их убеждают свиным и коровьем жиром, и готовящейся резне англичан.



Страна: США
Продолжительность: 01:23:34
Перевод: Любительский (одноголосый)

Видео: 592 x448 (4:3), 25 fps, XviD 2227 kbps avg, 0.336 bit/pixel
Аудио#1: Русский: AC3, 48.0 KHz, 2 ch, 192 Kbps [одноголосый]
Аудио#2: Английский: AC3, 48.0 KHz, 2 ch, 192 Kbps [Оригинал]


Общее
Полное имя : D:\FILM\F-2014\Disk-18\Bengal.Brigade.1954.USA.[vo.satkur+ita].AC3.Rus\Bengal.Brigade.1954.USA.[vo.satkur+ita].AC3.Rus.avi
Формат : AVI
Формат/Информация : Audio Video Interleave
Размер файла : 1,53 Гбайт
Продолжительность : 1 ч. 23 м.
Общий поток : 2626 Кбит/сек
Программа кодирования : VirtualDubModRus 1.5.10.2 (build 2542/release)
Библиотека кодирования : VirtualDubMod build 2542/release

Видео
Идентификатор : 0
Формат : MPEG-4 Visual
Профиль формата : Simple@L1
Параметр BVOP формата : Нет
Параметр QPel формата : Нет
Параметр GMC формата : Без точки перехода
Параметр матрицы формата : Default (H.263)
Идентификатор кодека : XVID
Идентификатор кодека/Подсказка : XviD
Продолжительность : 1 ч. 23 м.
Битрейт : 2227 Кбит/сек
Ширина : 592 пикселя
Высота : 448 пикселей
Соотношение сторон : 4:3
Частота кадров : 25,000 кадров/сек
Цветовое пространство : YUV
Субдискретизация насыщенности : 4:2:0
Битовая глубина : 8 бит
Тип развёртки : Прогрессивная
Метод сжатия : С потерями
Бит/(Пиксели*Кадры) : 0.336
Размер потока : 1,30 Гбайт (85%)
Библиотека кодирования : Lavc52.84.0

Аудио #1
Идентификатор : 1
Формат : AC-3
Формат/Информация : Audio Coding 3
Расширение режима : CM (complete main)
Параметр Endianness формата : Big
Идентификатор кодека : 2000
Продолжительность : 1 ч. 23 м.
Вид битрейта : Постоянный
Битрейт : 192 Кбит/сек
Каналы : 2 канала
Расположение каналов : Front: L R
Частота : 48,0 КГц
Битовая глубина : 16 бит
Метод сжатия : С потерями
Размер потока : 115 Мбайт (7%)
Выравнивание : Разделение по промежуткам
Продолжительность промежутка : 40 мс. (1,00 видеокадр)
Время предзагрузки промежутка : 500 мс.

Аудио #2
Идентификатор : 2
Формат : AC-3
Формат/Информация : Audio Coding 3
Расширение режима : CM (complete main)
Параметр Endianness формата : Big
Идентификатор кодека : 2000
Продолжительность : 1 ч. 23 м.
Вид битрейта : Постоянный
Битрейт : 192 Кбит/сек
Каналы : 2 канала
Расположение каналов : Front: L R
Частота : 48,0 КГц
Битовая глубина : 16 бит
Метод сжатия : С потерями
Размер потока : 115 Мбайт (7%)
Выравнивание : Разделение по промежуткам
Продолжительность промежутка : 40 мс. (1,00 видеокадр)
Время предзагрузки промежутка : 500 мс.








_________________
Проголосуй за трекер Открытый торрент трекер - RUS-MEDIA.ORG

Проголосуй Открытый торрент трекер - RUS-MEDIA.ORG



реклама партнёра


Вернуться к началу
 Профиль Отправить личное сообщение  
 
   Похожие торренты   Автор   Торрент   Размер 
В этой теме нет новых непрочитанных сообщений. Школа мужества [драма, приключения, военный, 1954] DVDRip-AVC

salma3

15 | 7

1.09 ГБ

В этой теме нет новых непрочитанных сообщений. Гюнтер и газетная мафия / Brigade kids [комедия, приключения, семейный, 1996] DVDRip, Avo

salma3

35 | 13

1.09 ГБ

В этой теме нет новых непрочитанных сообщений. Атака легкой кавалерии / The Charge of the Light Brigade [Драма, военный, исторический, 1968] HDRip-AVC, Mvo [5-й канал]

salma3

10 | 1

743.65 МБ

В этой теме нет новых непрочитанных сообщений. Атака легкой кавалерии / The Charge of the Light Brigade [Драма, военный, исторический, 1968] BDRemux 1080p, Mvo

salma3

40 | 10

20.47 ГБ

В этой теме нет новых непрочитанных сообщений. Зеленый огонь / Green Fire [Драма, приключения, 1954] DVDRip, Mvo

salma3

18 | 3

1.37 ГБ

В этой теме нет новых непрочитанных сообщений. Боевая бригада / The Librarians [Боевик, Триллер, 2003] DVDRip-AVC, Dvo

salma3

36 | 3

1.37 ГБ

В этой теме нет новых непрочитанных сообщений. Черный щит Фолуорта / The Black Shield of Falworth [мелодрама, приключения, история, 1954] BDRip 720p, Mvo

salma3

27 | 3

4.37 ГБ


Начать новую тему Ответить на тему  [ 1 сообщение ] 




Для Мосгорсуда, Роскомнадзора и рекламодателей:: mosgorsud-torrent[собачка]yandex.ru