Торрент файл
скачать торрент магнет ссылка Добавлен: 14 янв 2014, 18:55
Размер: 1.36 ГБ
Сидеров: 8
Личеров: 2
Статус: (salma3)
Автор

СообщениеДобавлено: 14 янв 2014, 18:55 

В сети
Супермодератор
Аватара пользователя
Дата регистрации:
15 фев 2012, 16:44
Возраст: 28
Спасибо: 6569 / 2137
Сообщения: 43761
Вызов Робину Гуду / A Challenge for Robin Hood

Год выпуска: 1967
Жанр: приключения
Режиссер: Си-Эм Пеннингтон-Ричардс

В ролях: Бэрри Ингэм, Питер Блайт, Гэй Хэмилтон, Джон Гудолка, Джеймс Хэйтер, Эрик Флинн, Рег Лие, Леон Грин, Дуглас Митчелл, Джон Харви, Артур Хьюлетт, Джон Грэхэм, Дженни Тилль, Уильям Скуайр, Норман Митчел, Элфи Бэсс, Дональд Пикеринг, Эрик Вулф, Гарри Филдер

Описание:
Кузен Робина, молодого нормандского дворянина, ложно обвиняет его в убийстве другого кузена. Мотивы обвинителя, вступившего в коррумпированный союз с Ноттингемским шерифом, корыстны – они хотят забрать у Робина фамильные земли, которые он унаследовал. Преследуемый людьми шерифа, Робин вынужден бежать в Шервудский лес. Там он знакомится с Малышом Джоном и его бандой, промышляющими грабежами и разбоями на лесных тропах, примыкает к ним, обучает военным премудростям и, со временем, становится их предводителем. Теперь шайка лесных разбойников превратилась в настоящий повстанческий отряд, а то, что им удается награбить у богатеев, проезжающих через лес, они отдают беднякам, чтобы те могли расплатиться с долгами шерифу. Тем временем шериф Ноттингемский, продолжающий планомерный захват всех примыкающих земель, собирается насильно взять в жены леди Мэриан, чтобы стать полноправным владельцем ее поместья...



Страна: Великобритания
Продолжительность: 01:32:12
Перевод: Профессиональный [многоголосый, закадровый] [студия "Лексикон"]

Файл
Качество: DVDRip
Формат файла: AVI
Видео кодек: XviD
Аудио кодек: AC3
Видео: 704x416 (1.69:1), 25 fps, XviD MPEG-4 ~1830 kbps avg, 0.25 bit/pixel
Аудио: 48 kHz, MPEG Layer 3, 2 ch, ~192.00 kbps avg


Спасибо автору релиза Lem

Общее
Полное имя : C:\Users\Admin\Downloads\A Challenge for Robin Hood_1967.DVDRipLem.avi
Формат : AVI
Формат/Информация : Audio Video Interleave
Размер файла : 1,36 Гбайт
Продолжительность : 1 ч. 32 м.
Общий поток : 2115 Кбит/сек
Программа кодирования : VirtualDubMod 1.5.10.3 | http://www.virtualdub-fr.org || (build 2550/release)
Библиотека кодирования : VirtualDubMod build 2550/release

Видео
Идентификатор : 0
Формат : MPEG-4 Visual
Профиль формата : Advanced Simple@L5
Параметр BVOP формата : 1
Параметр QPel формата : Нет
Параметр GMC формата : Без точки перехода
Параметр матрицы формата : Default (MPEG)
Идентификатор кодека : XVID
Идентификатор кодека/Подсказка : XviD
Продолжительность : 1 ч. 32 м.
Битрейт : 1830 Кбит/сек
Ширина : 704 пикселя
Высота : 416 пикселей
Соотношение сторон : 1,692
Частота кадров : 25,000 кадров/сек
Цветовое пространство : YUV
Субдискретизация насыщенности : 4:2:0
Битовая глубина : 8 бит
Тип развёртки : Прогрессивная
Метод сжатия : С потерями
Бит/(Пиксели*Кадры) : 0.250
Размер потока : 1,18 Гбайт (87%)
Библиотека кодирования : XviD 73

Аудио
Идентификатор : 1
Формат : MPEG Audio
Версия формата : Version 1
Профиль формата : Layer 3
Идентификатор кодека : 55
Идентификатор кодека/Подсказка : MP3
Продолжительность : 1 ч. 32 м.
Вид битрейта : Постоянный
Битрейт : 192 Кбит/сек
Каналы : 2 канала
Частота : 48,0 КГц
Метод сжатия : С потерями
Размер потока : 127 Мбайт (9%)
Выравнивание : Соединение по промежуткам
Библиотека кодирования : LAME3.99r
Настройки программы : -m s -V 4 -q 0 -lowpass 18.6 -b 192








_________________
Проголосуй за трекер Открытый торрент трекер - RUS-MEDIA.ORG

Проголосуй Открытый торрент трекер - RUS-MEDIA.ORG



реклама партнёра


Вернуться к началу
 Профиль Отправить личное сообщение  
 
   Похожие торренты   Автор   Торрент   Размер 
В этой теме нет новых непрочитанных сообщений. Вызов / Мексиканские приключения / The Challenge [Комедия, 2003] DVDRip, Mvo

salma3

109 | 4

1.46 ГБ

В этой теме нет новых непрочитанных сообщений. Вызов / The Challenge [Боевик, приключения, драма, 1982] BDRip 1080p, Mvo+3Avo

salma3

51 | 38

12.16 ГБ

В этой теме нет новых непрочитанных сообщений. Робин Гуд / Robin Hood [Боевик, драма, приключения, 2010] BDRemux 1080p, Dub [Directors Cut]

salma3

57 | 53

38.64 ГБ

В этой теме нет новых непрочитанных сообщений. Вызов бездне / Deepsea Challenge (Джон Бруно, Рэй Кен, Эндрю Уайт) [2014, документальный, HDRip] mvo

Nickolas3435

2155 | 120

1.37 ГБ

В этой теме нет новых непрочитанных сообщений. Вызов бездне 3D  / Deepsea Challenge 3D (Джон Бруно, Рэй Квинт, Эндрю Уайт) [документальный, научно-познавательный, океанография, 2014] HDRip, mvo [Чистый звук]

Dracon

3 | 3

1.37 ГБ

В этой теме нет новых непрочитанных сообщений. Вызов бездне 3D  / Deepsea Challenge 3D (Джон Бруно, Рэй Квинт, Эндрю Уайт) [документальный, научно-познавательный, океанография, 2014] BDRip 720p, mvo [Чистый звук]

Dracon

6 | 3

4.89 ГБ

В этой теме нет новых непрочитанных сообщений. Вызов бездне 3D  / Deepsea Challenge 3D (Джон Бруно, Рэй Квинт, Эндрю Уайт) [документальный, научно-познавательный, океанография, 2014] BDRip 1080p, mvo [HSBS | 3D-Video | Чистый звук]

Dracon

34 | 26

6.66 ГБ


Начать новую тему Ответить на тему  [ 1 сообщение ] 




Для Мосгорсуда, Роскомнадзора и рекламодателей:: mosgorsud-torrent[собачка]yandex.ru