Торрент файл
скачать торрент магнет ссылка Добавлен: 12 янв 2014, 15:46
Размер: 1.45 ГБ
Сидеров: 39
Личеров: 12
Статус: (salma3)
Автор

СообщениеДобавлено: 12 янв 2014, 15:46 

В сети
Супермодератор
Аватара пользователя
Дата регистрации:
15 фев 2012, 16:44
Возраст: 27
Спасибо: 5143 / 2090
Сообщения: 17499
Лунатики / Sleepwalkers

Год выпуска: 1992
Жанр: ужасы
Режиссер: Мик Гэррис / Mick Garris

В ролях: Брайан Краузе, Медкен Эмик, Элис Крайдж, Джим Хейни, Синди Пикетт, Рон Перлман, Лаймен Уорд, Дэн Мартин, Гленн Шэдикс, Синтия Гэррис

Описание:
Чарльз Брэйди и его мать — таинственное порождение темных сил: они оборотни. Их любимая добыча — молодые девственницы, дарующие им жизненную энергию. Но выбранная ими новая жертва оказывается сильнее и изобретательнее своих преследователей.
Школьница Таня Робертсон находит оружие против кровавой семейки. Больше всего на свете они боятся кошачьих когтей…



Страна: США
Продолжительность: 01:29:11
Перевод: Профессиональный (многоголосый, закадровый) [Видео Сервис]

Файл
Качество: HDRip
Формат файла: AVI
Видео кодек: XviD
Аудио кодек: AC3
Видео: 704x384 (1.83:1), 23.976 fps, XviD build 65 ~1933 kbps avg, 0.30 bit/pixel
Аудио 1: Русский: 48 kHz, AC3 Dolby Digital, 2/0 (L,R) ch, ~192 kbps [многоголосый]
Аудио 2: Английский: 48 kHz, AC3 Dolby Digital, 2/0 (L,R) ch, ~192 kbps [Original]


Считается, что это первый кинофильм, снятый по оригинальному сценарию Стивена Кинга, а не адаптирующий так или иначе какое-либо его произведение. На самом деле это не совсем так: для создания сценария Стивен Кинг использовал сюжет одного из своих неопубликованных рассказов.
Съемки фильма целиком проходили в Лос-Анджелесе, штат Калифорния.
Стивен Кинг снялся в фильме в роли смотрителя кладбища..
Дом лунатиков — это тот же дом, в котором снимался популярный семейный телесериал «Уолтоны» (1972-81).
В эпизоде на кладбище на надгробной плите за правым плечом Чарльза Брэди можно прочесть имя ассистентки режиссера фильма — Дженни Хикс.
В эпизоде погони патрульного за Чарльзом Брэди можно заметить, что одометр в машине Чарльза крутится в обратную сторону, — это очевидная отсылка к роману Стивена Кинга «Кристина» (и к его экранизации — одноименному фильму Джона Карпентера).
Позже машина Чарльза превращается из голубой в ярко-красную — в этом также можно усматривать намек на «Кристину».
В прологе фильма, когда лейтенант Дженнингс и другой полицейский, разговаривая, идут мимо полицейской машины, в ее заднем стекле можно заметить отражение микрофона.
Стреляя в Мэри Брэди в доме Тани Робертсон, помощник шерифа Хорас дважды разбивает выстрелом одну и ту же стеклянную или хрустальную вазу с желтыми цветами.
В конце фильма Таня режет руку об осколок стекла в окне. Однако в следующем кадре стекло исчезает.
Получив заряд картечи в спину, Чарльз Брэди садится в машину и едет домой. Когда он выходит из машины, окровавленное отверстие от попадания на его спине бесследно исчезает.

General
Complete name : E:\Фильмы\Лунатики.1992.HDRip.MVO+ENG.[tfile.ru].avi
Format : AVI
Format/Info : Audio Video Interleave
File size : 1.45 GiB
Duration : 1h 29mn
Overall bit rate : 2 332 Kbps
Movie name : Лунатики / Sleepwalkers (1992) BDRip
Director : Orbit
Genre : ужасы
Writing application : VirtualDubMod 1.5.10.2 (build 2542/release)
Copyright : hqclub.net

Video
ID : 0
Format : MPEG-4 Visual
Format profile : Advanced Simple@L5
Format settings, BVOP : 1
Format settings, QPel : No
Format settings, GMC : No warppoints
Format settings, Matrix : Custom
Codec ID : XVID
Codec ID/Hint : XviD
Duration : 1h 29mn
Bit rate : 1 934 Kbps
Width : 704 pixels
Height : 384 pixels
Display aspect ratio : 16:9
Frame rate : 23.976 fps
Color space : YUV
Chroma subsampling : 4:2:0
Bit depth : 8 bits
Scan type : Progressive
Compression mode : Lossy
Bits/(Pixel*Frame) : 0.298
Stream size : 1.20 GiB (83%)
Writing library : XviD 65

Audio #1
ID : 1
Format : AC-3
Format/Info : Audio Coding 3
Mode extension : CM (complete main)
Codec ID : 2000
Duration : 1h 29mn
Bit rate mode : Constant
Bit rate : 192 Kbps
Channel(s) : 2 channels
Channel positions : Front: L R
Sampling rate : 48.0 KHz
Bit depth : 16 bits
Compression mode : Lossy
Stream size : 122 MiB (8%)
Alignment : Split accross interleaves
Interleave, duration : 42 ms (1.00 video frame)
Interleave, preload duration : 500 ms

Audio #2
ID : 2
Format : AC-3
Format/Info : Audio Coding 3
Mode extension : CM (complete main)
Codec ID : 2000
Duration : 1h 29mn
Bit rate mode : Constant
Bit rate : 192 Kbps
Channel(s) : 2 channels
Channel positions : Front: L R
Sampling rate : 48.0 KHz
Bit depth : 16 bits
Compression mode : Lossy
Stream size : 122 MiB (8%)
Alignment : Split accross interleaves
Interleave, duration : 42 ms (1.00 video frame)
Interleave, preload duration : 500 ms














_________________



реклама партнёра


Вернуться к началу
 Профиль Отправить личное сообщение  
 
   Похожие торренты   Автор   Торрент   Размер 
В этой теме нет новых непрочитанных сообщений. Лунатики / Sleepwalkers [Ужасы, триллер, 1992] BDRip 720p, 2Mvo+2Avo

salma3

17 | 2

5.43 ГБ

В этой теме нет новых непрочитанных сообщений. Сумасшедшие / Лунатики / Din lo jing juen [драма, 1986] DVDRip, Avo

salma3

5 | 3

1.46 ГБ

В этой теме нет новых непрочитанных сообщений. Газонокосильщик / The Lawnmower Man [ужасы, фантастика, 1992] BDRip, Mvo

salma3

13 | 2

1.46 ГБ

В этой теме нет новых непрочитанных сообщений. Кэндимэн / Candyman [ужасы, триллер, драма, 1992] BDRip-AVC, Mvo

salma3

21 | 1

3.76 ГБ

В этой теме нет новых непрочитанных сообщений. Дракула / Dracula [ужасы, фэнтези, мелодрама, 1992] Blu-ray CEE 1080p, Dub+Sub

salma3

12 | 40

45.17 ГБ

В этой теме нет новых непрочитанных сообщений. Живая Мертвечина / Dead Alive / Braindead [ужасы, комедия, 1992] BDRip, Mvo

salma3

54 | 8

1.46 ГБ

В этой теме нет новых непрочитанных сообщений. Кровь невинных / Innocent Blood [ужасы, триллер, комедия, криминал, 1992] DVDRip, Avo

salma3

19 | 0

1.46 ГБ


Начать новую тему Ответить на тему  [ 1 сообщение ] 




Для Мосгорсуда, Роскомнадзора и рекламодателей:: mosgorsud-torrent[собачка]yandex.ru