Торрент файл
скачать торрент магнет ссылка Добавлен: 10 янв 2014, 12:59
Размер: 680.38 МБ
Сидеров: 102
Личеров: 18
Статус: (salma3)
Автор

СообщениеДобавлено: 10 янв 2014, 12:59 

Не в сети
Супермодератор
Аватара пользователя
Дата регистрации:
15 фев 2012, 16:44
Возраст: 27
Спасибо: 5121 / 2089
Сообщения: 17282
Щупальца / Octopus

Год выхода: 2000
Жанр: ужасы, приключения
Режиссер: Джон Эйрс

В ролях: Джей Хэррингтон, Равиль Исянов, Дэвид Бикрофт, Кэролин Лоури, Рикко Росс, Джеф Нэттал, Джордж Станчев, Мартин МакДугалл, Василь Банов, Николай Урумов

О фильме:
Пересекая Атлантический океан, субмарина оказывается в загадочном месте, где в 1962 году бесследно исчезла русская атомная подводная лодка. Страшная история повторяется вновь. Неведомая сила атакует подводный корабль и тянет его ко дну.

Но наконец чудовищная загадка разрешена. Темные воды таят гигантского монстра — спрута. Изголодавшееся чудовище покинуло океанские глубины в поисках добычи. Безумная паника перед неминуемой смертью охватила несчастный экипаж, не надеющийся на спасение.



Страна: США
Продолжительность: 01:31:57
Перевод: Профессиональный (двухголосый закадровый)

Файл
Качество: DVDRip
Формат файла: AVI
Видео кодек: DivX
Аудио кодек: MP3
Видео: 512x400 (1.280), 25.000 fps, 897 kbps
Звук: MP3, 2 ch, 48.0 kHz, 128 kbps, CBR


SAMPLE

Общее
Полное имя : Щупальца (Octopus).2000.DVDRip.2ch.avi
Формат : AVI
Формат/Информация : Audio Video Interleave
Размер файла : 680 Мбайт
Продолжительность : 1 ч. 31 м.
Общий поток : 1035 Кбит/сек
Библиотека кодирования : VirtualDub build 12667/release

Видео
Идентификатор : 0
Формат : MPEG-4 Visual
Идентификатор кодека : DIV3
Идентификатор кодека/Подсказка : DivX 3 Low
Продолжительность : 1 ч. 31 м.
Битрейт : 897 Кбит/сек
Ширина : 512 пикселей
Высота : 400 пикселей
Соотношение сторон : 1,280
Частота кадров : 25,000 кадров/сек
Цветовое пространство : YUV
Субдискретизация насыщенности : 4:2:0
Битовая глубина : 8 бит
Метод сжатия : С потерями
Бит/(Пиксели*Кадры) : 0.175
Размер потока : 590 Мбайт (87%)

Аудио
Идентификатор : 1
Формат : MPEG Audio
Версия формата : Version 1
Профиль формата : Layer 3
Режим : Joint stereo
Расширение режима : MS Stereo
Идентификатор кодека : 55
Идентификатор кодека/Подсказка : MP3
Продолжительность : 1 ч. 31 м.
Вид битрейта : Постоянный
Битрейт : 128 Кбит/сек
Каналы : 2 канала
Частота : 48,0 КГц
Метод сжатия : С потерями
Размер потока : 84,2 Мбайт (12%)
Выравнивание : Разделение по промежуткам
Продолжительность промежутка : 40 мс. (1,00 видеокадр)
Время предзагрузки промежутка : 500 мс.

Релиз от: vamosss


_________________



реклама партнёра


Вернуться к началу
 Профиль Отправить личное сообщение  
 
   Похожие торренты   Автор   Торрент   Размер 
В этой теме нет новых непрочитанных сообщений. Щупальца 2 / Octopus 2: River of Fear [ужасы, 2001] DVDRip, Dvo

salma3

33 | 6

1.45 ГБ

В этой теме нет новых непрочитанных сообщений. Octopus Asylum - Octopus Asylum [2014, Progressive Rock, MP3]

PriZraK

4 | 2

209.22 МБ

В этой теме нет новых непрочитанных сообщений. Бермудские щупальца / Bermuda Tentacles [ужасы, фантастика, боевик, триллер, 2014] WEB-DLRip, Mvo

salma3

103 | 9

1.46 ГБ

В этой теме нет новых непрочитанных сообщений. Бермудские щупальца / Bermuda Tentacles [ужасы, фантастика, боевик, триллер, 2014] SATRip, Mvo

salma3

274 | 8

1.37 ГБ

В этой теме нет новых непрочитанных сообщений. Бермудские щупальца / Bermuda Tentacles [ужасы, фантастика, боевик, триллер, 2014] WEB-DL 720p, Mvo

salma3

103 | 3

2.88 ГБ

В этой теме нет новых непрочитанных сообщений. Дракула 2000 / Dracula 2000 [ужасы, фэнтези, боевик, триллер, 2000] BDRip 720p, Dub+Sub

salma3

101 | 8

3.83 ГБ

В этой теме нет новых непрочитанных сообщений. Дракула 2000 / Dracula 2000 [ужасы, фэнтези, боевик, триллер, 2000] BDRip 1080p, Dub+Sub

salma3

54 | 14

9.81 ГБ


Начать новую тему Ответить на тему  [ 1 сообщение ] 




Для Мосгорсуда, Роскомнадзора и рекламодателей:: mosgorsud-torrent[собачка]yandex.ru