Торрент файл
скачать торрент магнет ссылка Добавлен: 07 янв 2014, 21:40
Размер: 1.35 ГБ
Сидеров: 55
Личеров: 2
Статус: (salma3)
Автор

СообщениеДобавлено: 07 янв 2014, 21:40 

Не в сети
Супермодератор
Аватара пользователя
Дата регистрации:
15 фев 2012, 16:44
Возраст: 27
Спасибо: 5121 / 2089
Сообщения: 17304
Побег / The Getaway

Год выпуска: 1994
Жанр: боевик, триллер, драма
Режиссер: Роджер Дональдсон / Roger Donaldson

В ролях: Ким Бэйсинжер, Алек Болдуин, Филип Сэймур Хоффман, Майкл Мэдсен, Дженнифер Тилли, Ричард Фарнсворт, Джеймс Вудс, Дэвид Морс

Описание:
Профессиональный взломщик сейфов Док МакКой помог молодому преступнику-мексиканцу сбежать из-за решетки, доставил парня его дяде, но не почувствовал, откуда грозит настоящая опасность, и в результате сам попал в тюрьму. Спустя некоторое время Кэрол МакКой, жена Дока, переспала с продажным инспектором Джеком Беньоном, и тот поспособствовал досрочному освобождению «медвежатника».
Однако у Джека имелись чрезвычайно далеко идущие планы на ближайшее будущее Дока и Кэрол: под давлением шантажиста Беньона супруги должны были совершить ограбление банка…



Страна: США, Япония
Продолжительность: [01:53:52
Перевод: [color=blue]Профессиональный (многоголосый, закадровый)

Файл
Качество: HDTVRip
Формат файла: AVI
Видео кодек: XviD
Аудио кодек: MP3
Видео: 720x304 (2.37:1), 23.976 fps, XviD MPEG-4 ~1494 kbps avg, 0.28 bit/pixel
Аудио: Русский: 48 kHz, MPEG Layer 3, 2 ch, ~192.00 kbps avg



General
Complete name : E:\Фильмы\Побег.1994.HDTVRip.MVO.[tfile.ru].avi
Format : AVI
Format/Info : Audio Video Interleave
File size : 1.35 GiB
Duration : 1h 53mn
Overall bit rate : 1 700 Kbps
Writing application : Nandub v1.0rc2
Writing library : Nandub build 1853/release

Video
ID : 0
Format : MPEG-4 Visual
Format profile : Advanced Simple@L5
Format settings, BVOP : 1
Format settings, QPel : No
Format settings, GMC : No warppoints
Format settings, Matrix : Default (MPEG)
Muxing mode : Packed bitstream
Codec ID : DX50
Codec ID/Hint : DivX 5
Duration : 1h 53mn
Bit rate : 1 495 Kbps
Width : 720 pixels
Height : 304 pixels
Display aspect ratio : 2.35:1
Frame rate : 23.976 fps
Color space : YUV
Chroma subsampling : 4:2:0
Bit depth : 8 bits
Scan type : Progressive
Compression mode : Lossy
Bits/(Pixel*Frame) : 0.285
Stream size : 1.19 GiB (88%)
Writing library : XviD 1.1.2 (UTC 2006-11-01)

Audio
ID : 1
Format : MPEG Audio
Format version : Version 1
Format profile : Layer 3
Mode : Joint stereo
Mode extension : MS Stereo
Codec ID : 55
Codec ID/Hint : MP3
Duration : 1h 53mn
Bit rate mode : Constant
Bit rate : 192 Kbps
Channel(s) : 2 channels
Sampling rate : 48.0 KHz
Compression mode : Lossy
Stream size : 156 MiB (11%)
Alignment : Aligned on interleaves
Interleave, duration : 24 ms (0.58 video frame)
Interleave, preload duration : 480 ms
Writing library : LAME3.97
Encoding settings : -m j -V 4 -q 3 -lowpass 18.6 -b 192














_________________



реклама партнёра


Вернуться к началу
 Профиль Отправить личное сообщение  
 
   Похожие торренты   Автор   Торрент   Размер 
В этой теме нет новых непрочитанных сообщений. Побег / The Getaway [боевик, триллер, драма, 1994] HDRip, Mvo

salma3

0 | 2

1.46 ГБ

В этой теме нет новых непрочитанных сообщений. Побег / The Getaway [боевик, триллер, драма, 1994] HD-DVDRip-AVC, Mvo+Avo

salma3

45 | 5

2.19 ГБ

В этой теме нет новых непрочитанных сообщений. Побег невозможен / Escape from absolom [Фантастика, боевик, триллер, драма, 1994] HDTVRip-AVC, Mvo+Avo+Sub

salma3

50 | 4

2.9 ГБ

В этой теме нет новых непрочитанных сообщений. Поспешное бегство 2 / Fast Getaway II [боевик, комедия, 1994] DVDRip, Avo

salma3

19 | 3

1.47 ГБ

В этой теме нет новых непрочитанных сообщений. Поспешное бегство / Fast Getaway [боевик, комедия, криминал, 1991] HDTVRip, Mvo

salma3

13 | 2

1.46 ГБ

В этой теме нет новых непрочитанных сообщений. Кровавый побег / Blood Run [Триллер, детектив, 1994] DVDRip, Avo

salma3

10 | 1

1.37 ГБ

В этой теме нет новых непрочитанных сообщений. Побег / La fuga [S01] [фантастика, боевик, драма, 2011–2012] HDTVRip, Mvo

Dracon

38 | 11

10.59 ГБ


Начать новую тему Ответить на тему  [ 1 сообщение ] 




Для Мосгорсуда, Роскомнадзора и рекламодателей:: mosgorsud-torrent[собачка]yandex.ru