Торрент файл
скачать торрент магнет ссылка Добавлен: 07 янв 2014, 16:02
Размер: 1.36 ГБ
Сидеров: 114
Личеров: 21
Статус: (salma3)
Автор

СообщениеДобавлено: 07 янв 2014, 16:02 

Не в сети
Супермодератор
Аватара пользователя
Дата регистрации:
15 фев 2012, 16:44
Возраст: 27
Спасибо: 5139 / 2089
Сообщения: 17411
За гранью смерти / Outside the Law

Год выпуска: 2002
Жанр: Боевик
Режиссер: Джорджи Монтези

В ролях: Синтия Ротрок, Шеймус Девер, Джессика Стир, Джефф Уинкотт, Стефен Махт, Дэн Лория, Брэд Гринквист, Дон Харви, Петра Райт, Джеймс Лью

О фильме:
Еще вчера она была правительственным агентом. Сегодня она предана, очернена и преследуема. Единственный шанс спастись - успеть добраться до границы и исчезнуть за пределами страны. Но так ли легко это сделать, когда тебя ищут профессионалы? А уж если за тебя возьмется наркомафия, переправляющая через фронтир горы «белой смерти», вообще пиши пропало! Кольцо сжимается, и в этой ситуации есть лишь один способ избежать смерти — самой стать ходячей смертью для своих врагов!



Страна: США
Продолжительность: 01:26:42
Перевод: Профессиональный [многоголосый]

Файл
Качество: DVDRip
Формат файла: AVI
Видео кодек: DivX
Аудио кодек: AC3
Видео: DivX, 1791 Кбит/с, 704x384
Звук: AC3, 6 ch, 448 Кбит/с


Семпл



Общее
Полное имя : D:\Outside_the_law_(-Feodor-).avi
Формат : AVI
Формат/Информация : Audio Video Interleave
Размер файла : 1,36 Гбайт
Продолжительность : 1 ч. 26 м.
Общий поток : 2248 Кбит/сек
Программа кодирования : VirtualDubMod 1.5.10.2 (build 2540/release)
Библиотека кодирования : VirtualDubMod build 2540/release

Видео
Идентификатор : 0
Формат : MPEG-4 Visual
Параметр BVOP формата : 2
Параметр QPel формата : Нет
Параметр GMC формата : Без точки перехода
Параметр матрицы формата : Default (MPEG)
Идентификатор кодека : DX50
Идентификатор кодека/Подсказка : DivX 5
Продолжительность : 1 ч. 26 м.
Битрейт : 1791 Кбит/сек
Ширина : 704 пикселя
Высота : 384 пикселя
Соотношение сторон : 1,85:1
Частота кадров : 25,000 кадров/сек
Цветовое пространство : YUV
Субдискретизация насыщенности : 4:2:0
Битовая глубина : 8 бит
Тип развёртки : Прогрессивная
Метод сжатия : С потерями
Бит/(Пиксели*Кадры) : 0.265
Размер потока : 1,08 Гбайт (80%)
Библиотека кодирования : DivX 1328m

Аудио
Идентификатор : 1
Формат : AC-3
Формат/Информация : Audio Coding 3
Расширение режима : CM (complete main)
Параметр Endianness формата : Big
Идентификатор кодека : 2000
Продолжительность : 1 ч. 26 м.
Вид битрейта : Постоянный
Битрейт : 448 Кбит/сек
Каналы : 6 каналов
Original Channel count : 5 каналов
Расположение каналов : Front: L C R, Side: L R
Частота : 48,0 КГц
Битовая глубина : 16 бит
Метод сжатия : С потерями
Размер потока : 278 Мбайт (20%)
Выравнивание : Разделение по промежуткам
Продолжительность промежутка : 40 мс. (1,00 видеокадр)
Время предзагрузки промежутка : 500 мс.


_________________



реклама партнёра


Вернуться к началу
 Профиль Отправить личное сообщение  
 
   Похожие торренты   Автор   Торрент   Размер 
В этой теме нет новых непрочитанных сообщений. Жажда смерти 5: Лик смерти / Death Wish V: The Face of Death [Боевик, Криминал, Триллер, 1994] BDRip-AVC, mvo

salma3

17 | 4

2.85 ГБ

В этой теме нет новых непрочитанных сообщений. Зона смерти / Kill Zone [боевик, 1993] DVDRip, Avo

salma3

87 | 6

1.37 ГБ

В этой теме нет новых непрочитанных сообщений. Бой до смерти / Death Match [боевик, драма, 1994] DVDRip, Avo

salma3

22 | 4

1.37 ГБ

В этой теме нет новых непрочитанных сообщений. Маска смерти / Mask of Death [Боевик, триллер, 1996] DVDRip, Avo

salma3

69 | 28

1.4 ГБ

В этой теме нет новых непрочитанных сообщений. Сильнейший удар: Бой до смерти / Shootfighter: Fight to the Death [боевик, 1992] DVDRip, Dvo [Рен ТВ]

salma3

58 | 3

1.46 ГБ

В этой теме нет новых непрочитанных сообщений. Поцелуй смерти / Kiss Of Death [боевик, триллер, криминал, 1994] DVDRip, Mvo

salma3

8 | 2

1.46 ГБ

В этой теме нет новых непрочитанных сообщений. Нападение на Остров Дьявола 2: Гора Смерти / Shadow Warriors II: Hunt for the Death Merchant [Боевик, 1998] DVDRip, Mvo

salma3

21 | 7

1.37 ГБ


Начать новую тему Ответить на тему  [ 1 сообщение ] 




Для Мосгорсуда, Роскомнадзора и рекламодателей:: mosgorsud-torrent[собачка]yandex.ru