Торрент файл
скачать торрент магнет ссылка Добавлен: 05 янв 2014, 20:40
Размер: 1.27 ГБ
Сидеров: 112
Личеров: 9
Статус: (salma3)
Автор

СообщениеДобавлено: 05 янв 2014, 20:40 

Не в сети
Супермодератор
Аватара пользователя
Дата регистрации:
15 фев 2012, 16:44
Возраст: 28
Спасибо: 6468 / 2129
Сообщения: 40827
Прибрежное диско / The Baytown Outlaws

Год выхода: 2003
Жанр: ужасы, триллер
Режиссер: Бретт Пайпер

В ролях: Роб Монкевич, Рэйчел Роббинс, Мисти Мандэй, Джозеф Фаррелл. Хайди Кристоффер, Кевин Г. Шинник, А.Дж. Кхан

О фильме:
Роджер Нил — успешный фотограф, специализирующийся в основном в запечатлении на плёнку крови и насилия. В компании с тремя моделями он решает устроить очередную фотосессию в заброшенном здании, но обитающий в этом месте злобный дух меняет его планы.



Страна: США
Студия: The Asylum
Продолжительность: 01:28:31
Перевод: Авторский одноголосый (Вячеслав Котов)


Файл
Качество: DVDRip
Формат файла: AVI
Видео кодек: XviD
Аудио кодек: MP3
Видео: 720x536 (4:3), 1911 kbps, 23,976 fps, 0,207 Bits/(Pixel*Frame)
Звук: MP3, 48 kHz, 128 kbps, 2 ch

General
Complete name : G:screaming.dead.2003.DVDRip_by_Bathory.avi
Format : AVI
Format/Info : Audio Video Interleave
File size : 1.27 GiB
Duration : 1h 28mn
Overall bit rate : 2 048 Kbps
Writing application : VirtualDubMod 1.5.10.2 (build 2540/release)
Writing library : VirtualDubMod build 2540/release

Video
ID : 0
Format : MPEG-4 Visual
Format profile : Advanced Simple@L5
Format settings, BVOP : 1
Format settings, QPel : No
Format settings, GMC : No warppoints
Format settings, Matrix : Default (MPEG)
Codec ID : XVID
Codec ID/Hint : XviD
Duration : 1h 28mn
Bit rate : 1 911 Kbps
Width : 720 pixels
Height : 536 pixels
Display aspect ratio : 4:3
Frame rate : 23.976 fps
Color space : YUV
Chroma subsampling : 4:2:0
Bit depth : 8 bits
Scan type : Progressive
Compression mode : Lossy
Bits/(Pixel*Frame) : 0.207
Stream size : 1.18 GiB (93%)
Writing library : XviD 73

Audio
ID : 1
Format : MPEG Audio
Format version : Version 1
Format profile : Layer 3
Mode : Joint stereo
Mode extension : MS Stereo
Codec ID : 55
Codec ID/Hint : MP3
Duration : 1h 28mn
Bit rate mode : Constant
Bit rate : 128 Kbps
Channel count : 2 channels
Sampling rate : 48.0 KHz
Compression mode : Lossy
Stream size : 81.0 MiB (6%)
Alignment : Aligned on interleaves
Interleave, duration : 42 ms (1.00 video frame)
Interleave, preload duration : 504 ms
Writing library : LAME3.99r
Encoding settings : -m j -V 4 -q 2 -lowpass 17 -b 128



Релиз от: Автор рипа: _Bathory_


_________________
Проголосуй за трекер Открытый торрент трекер - RUS-MEDIA.ORG

Проголосуй Открытый торрент трекер - RUS-MEDIA.ORG



реклама партнёра


Вернуться к началу
 Профиль Отправить личное сообщение  
 
   Похожие торренты   Автор   Торрент   Размер 
В этой теме нет новых непрочитанных сообщений. Мертвецы / City of Dead Men [ужасы, триллер, 2014] WEBDLRip, Mvo

salma3

68 | 23

1.37 ГБ

В этой теме нет новых непрочитанных сообщений. Восставшие мертвецы / Dead Rising (Боевик, ужасы, триллер, 2015) BDRip 720p от k.e.n | P, L2

marya111

0 | 0

4.02 ГБ

В этой теме нет новых непрочитанных сообщений. Ходячие мертвецы / The Walking Dead / 7 сезон 1-16 серия из 16 [Мистика, триллер, ужасы, 2016] WEB-DLRip, Mvo [FOX]

salma3

467 | 2483

9.15 ГБ

В этой теме нет новых непрочитанных сообщений. Ходячие мертвецы / The Walking Dead / 7 сезон 1-16 серия из 16 [Мистика, триллер, ужасы, 2016] WEB-DL 1080p, Mvo [FOX]

salma3

158 | 1533

32.52 ГБ

В этой теме нет новых непрочитанных сообщений. Ходячие мертвецы / The Walking Dead [S01-07] [Ужасы, триллер, драма, 2010-2017] WEB-DLRip, Mvo [КПК] ]LostFilm]

salma3

50 | 157

19.96 ГБ

В этой теме нет новых непрочитанных сообщений. Ходячие мертвецы / The Walking Dead [S01-07] [Ужасы, триллер, драма, 2014-2017] WEB-DLRip, Mvo [LostFilm]

salma3

19 | 342

62.6 ГБ

В этой теме нет новых непрочитанных сообщений. Ходячие мертвецы / The Walking Dead [05x01-16 из 16] [Ужасы, триллер, драма, фантастика, 2014] WEB-DL 1080p [LostFilm]

Dracon

45 | 46

29.95 ГБ


Начать новую тему Ответить на тему  [ 1 сообщение ] 




Для Мосгорсуда, Роскомнадзора и рекламодателей:: mosgorsud-torrent[собачка]yandex.ru