Торрент файл
скачать торрент магнет ссылка Добавлен: 05 янв 2014, 16:14
Размер: 1.42 ГБ
Сидеров: 105
Личеров: 10
Статус: (salma3)
Автор

СообщениеДобавлено: 05 янв 2014, 16:14 

В сети
Супермодератор
Аватара пользователя
Дата регистрации:
15 фев 2012, 16:44
Возраст: 28
Спасибо: 6579 / 2144
Сообщения: 44053
Кровавая жатва / Haute tension

«Не доверяйте тихим уголкам»

Год выпуска: 2003
Жанр: ужасы, триллер, драма
Режиссер: Александр Ажа

В ролях: Сесиль де Франс, Майвенн Ле Беско, Филипп Наон, Франк Халфун, Андрей Финти, Оана Пелля, Марко Клаудиу Паску, Жан-Клод де Горос, Богдан Уритеску, Габриэль Спахиу

Описание: Дом на отшибе. Две лучшие подруги и кровожадный убийца. Героиням фильма за одну ночь придется пережить самый страшный кошмар, какой только они могли себе вообразить. Они столкнутся со страхом неизвестного, со страхом темноты и животным страхом неотвратимости смерти.



Страна: Франция, Италия, Румыния
Продолжительность: 01:30:45
Перевод: Профессиональный (многоголосый, закадровый) [Лицензия]

Файл
Качество: HDRip-AVC
Формат файла: MKV
Видео кодек: х264
Аудио кодек: AC3
Видео: 960 x 400 (2.40:1), 23.976 fps, AVC (х264) High@L4.1, ~ 1935 Kbps, 0.150 bit/pixel
Аудио#1: Русский: 48 kHz, AC3 Dolby Digital, 2/0 (L,R) ch, ~192 kbps [многоголосый]
Аудио#2: Французский: 48 kHz, AC3 Dolby Digital, 2/0 (L,R) ch, ~192 kbps [Оригинал]


General
Unique ID : 168348648403719580577546155723716462494 (0x7EA6C532C2870C1E037BA147C20E879E)
Complete name : E:\Krovavaja.zhatva_Klayd X.mkv
Format : Matroska
File size : 1.42 GiB
Duration : 1h 30mn
Overall bit rate : 2 236 Kbps
Writing application : Lavf51.12.1
Writing library : Lavf51.12.1

Video
ID : 1
Format : AVC
Format/Info : Advanced Video Codec
Format profile : Baseline@L3.1
Format settings, CABAC : No
Format settings, ReFrames : 1 frame
Codec ID : V_MPEG4/ISO/AVC
Duration : 1h 30mn
Bit rate mode : Variable
Bit rate : 1 935 Kbps
Width : 1 120 pixels
Height : 480 pixels
Display aspect ratio : 2.35:1
Frame rate : 23.976 fps
Original frame rate : 24.000 fps
Color space : YUV
Chroma subsampling : 4:2:0
Bit depth : 8 bits
Scan type : Progressive
Bits/(Pixel*Frame) : 0.150
Stream size : 1.23 GiB (87%)
Language : English / English

Audio #1
ID : 2
Format : AC-3
Format/Info : Audio Coding 3
Mode extension : CM (complete main)
Codec ID : A_AC3
Duration : 1h 30mn
Bit rate mode : Constant
Bit rate : 128 Kbps
Channel(s) : 2 channels
Channel positions : Front: L R
Sampling rate : 48.0 KHz
Bit depth : 16 bits
Compression mode : Lossy
Stream size : 83.1 MiB (6%)
Language : English / Russian

Audio #2
ID : 3
Format : AC-3
Format/Info : Audio Coding 3
Mode extension : CM (complete main)
Codec ID : A_AC3
Duration : 1h 30mn
Bit rate mode : Constant
Bit rate : 128 Kbps
Channel(s) : 2 channels
Channel positions : Front: L R
Sampling rate : 48.0 KHz
Bit depth : 16 bits
Compression mode : Lossy
Stream size : 83.1 MiB (6%)
Language : English / French











_________________
Проголосуй за трекер Открытый торрент трекер - RUS-MEDIA.ORG

Проголосуй Открытый торрент трекер - RUS-MEDIA.ORG



реклама партнёра


Вернуться к началу
 Профиль Отправить личное сообщение  
 
   Похожие торренты   Автор   Торрент   Размер 
В этой теме нет новых непрочитанных сообщений. Кровавая гонка / Кровавая езда / Blood Drive [S01] [Драма, ужасы, фантастика, 2017] WEB-DLRip, Mvo [IdeaFilm]

salma3

36 | 48

8.61 ГБ

В этой теме нет новых непрочитанных сообщений. Кровавая гонка / Кровавая езда / Blood Drive [S01] [Драма, ужасы, фантастика, 2017] WEB-DLRip 720p, Mvo [IdeaFilm]

salma3

8 | 23

18.61 ГБ

В этой теме нет новых непрочитанных сообщений. Кровавая гонка / Кровавая езда / Blood Drive [S01] [Драма, ужасы, фантастика, 2017] WEB-DLRip 1080p, Mvo [IdeaFilm]

salma3

13 | 18

30.29 ГБ

В этой теме нет новых непрочитанных сообщений. Кровавая луна / Blood Moon [ужасы, триллер, вестерн, 2014] HDRip, Avo

salma3

76 | 2

1.24 ГБ

В этой теме нет новых непрочитанных сообщений. Кровавая ловушка / Blood Trap / Bite [ужасы, боевик, триллер, криминал, 2016] HDRip. avo

marya111

0 | 0

1.37 ГБ

В этой теме нет новых непрочитанных сообщений. Молодая кровь / La tête haute (Эмманюэль Берко) [драма, 2015] HDRip, Mvo

Dracon

3596 | 343

1.37 ГБ

В этой теме нет новых непрочитанных сообщений. Молодая кровь / La tête haute (Эмманюэль Берко) [драма, 2015] HDRip, Mvo

Dracon

429 | 39

2.05 ГБ


Начать новую тему Ответить на тему  [ 1 сообщение ] 




Для Мосгорсуда, Роскомнадзора и рекламодателей:: mosgorsud-torrent[собачка]yandex.ru