Торрент файл
скачать торрент магнет ссылка Добавлен: 05 янв 2014, 16:06
Размер: 1.46 ГБ
Сидеров: 165
Личеров: 12
Статус: (salma3)
Автор

СообщениеДобавлено: 05 янв 2014, 16:06 

Не в сети
Супермодератор
Аватара пользователя
Дата регистрации:
15 фев 2012, 16:44
Возраст: 28
Спасибо: 6594 / 2145
Сообщения: 44334
Контроль / Control

Год выпуска: 2004
Жанр: триллер, криминал, драма
Режиссер: Тим Хантер / Tim Hunter

В ролях: Рэй Лиотта / Ray Liotta, Уиллем Дефо / Willem Dafoe, Мишель Родригес / Michelle Rodriguez, Стивен Ри / Stephen Rea, Полли Уокер / Polly Walker, Кэтлин Робертсон / Kathleen Robertson, Тим ДиКей / Tim DeKay

Описание: В последние секунды своей жизни Ли Рэй Оливер вспоминал детство... Смертельная инъекция заполняла тело психопата-убийцы ядовитой жидкостью... В конце концов, глаза Оливера закрылись, и врач констатировал наступление смерти...

Когда свидетели, которым полагалось присутствовать при исполнении смертного приговора, разошлись, тело Ли Рэя в черном целлофановом мешке увезли в другую комнату, где спустя некоторое время Оливер проснулся и узнал, что ему предлагается стать участником секретного медицинского эксперимента...



Страна: Германия, США, Аруба
Продолжительность: 01:38:58
Перевод: Профессиональный (многоголосый закадровый)

Файл
Качество: WEB-DLRip
Формат файла: AVI
Видео кодек: XviD
Аудио кодек: AC3
Видео: 720x400 (16:9), 23.976 fps, XviD ~1656 kbps, 0.239 bit/pixel
Аудио: AC3, 5.1, 48.0 kHz, ~448 kbps, 3/2 (L,C,R,l,r) + LFE ch


Код:
General
Complete name                            : Y:Control.2004.WEB-DLRip_[new-team]_by_DrStandBy.avi
Format                                   : AVI
Format/Info                              : Audio Video Interleave
File size                                : 1.46 GiB
Duration                                 : 1h 38mn
Overall bit rate                         : 2 108 Kbps
Writing application                      : VirtualDubMod 1.5.10.3 | www.virtualdub-fr.org || (build 2550/release)
Writing library                          : VirtualDubMod build 2550/release

Video
ID                                       : 0
Format                                   : MPEG-4 Visual
Format profile                           : Advanced Simple@L5
Format settings, BVOP                    : 1
Format settings, QPel                    : No
Format settings, GMC                     : No warppoints
Format settings, Matrix                  : Custom
Codec ID                                 : XVID
Codec ID/Hint                            : XviD
Duration                                 : 1h 38mn
Bit rate                                 : 1 651 Kbps
Width                                    : 720 pixels
Height                                   : 400 pixels
Display aspect ratio                     : 16:9
Frame rate                               : 23.976 fps
Color space                              : YUV
Chroma subsampling                       : 4:2:0
Bit depth                                : 8 bits
Scan type                                : Progressive
Compression mode                         : Lossy
Bits/(Pixel*Frame)                       : 0.239
Stream size                              : 1.14 GiB (78%)
Writing library                          : XviD 1.2.1 (UTC 2008-12-04)

Audio
ID                                       : 1
Format                                   : AC-3
Format/Info                              : Audio Coding 3
Mode extension                           : CM (complete main)
Format settings, Endianness              : Big
Codec ID                                 : 2000
Duration                                 : 1h 38mn
Bit rate mode                            : Constant
Bit rate                                 : 448 Kbps
Channel(s)                               : 6 channels
Channel positions                        : Front: L C R, Side: L R, LFE
Sampling rate                            : 48.0 KHz
Bit depth                                : 16 bits
Compression mode                         : Lossy
Stream size                              : 317 MiB (21%)
Alignment                                : Split accross interleaves
Interleave, duration                     : 42 ms (1.00 video frame)
Interleave, preload duration             : 500 ms

Раздача от:


_________________
Проголосуй за трекер Открытый торрент трекер - RUS-MEDIA.ORG

Проголосуй Открытый торрент трекер - RUS-MEDIA.ORG



реклама партнёра


Вернуться к началу
 Профиль Отправить личное сообщение  
 
   Похожие торренты   Автор   Торрент   Размер 
В этой теме нет новых непрочитанных сообщений. Контроль / Control [триллер, криминал, драма, 2004] BDRip 720p, Mvo

salma3

28 | 3

4.36 ГБ

В этой теме нет новых непрочитанных сообщений. Контроль земли / Ground Control [Боевик, триллер, драма, 1998] WEB-DL 720p, Dvo

salma3

137 | 66

3.21 ГБ

В этой теме нет новых непрочитанных сообщений. Скорость 2: Контроль над круизом / Speed 2: Cruise Control [боевик, триллер, 1997] HDRip, Mvo

salma3

82 | 4

1.46 ГБ

В этой теме нет новых непрочитанных сообщений. Теряя контроль / She's Lost Control (Аня Марквардт/ Anja Marquardt) [2014г., драма, DVDRip] Sub

Alfredovich

133 | 12

1.46 ГБ

В этой теме нет новых непрочитанных сообщений. Контроль разума / Beautiful Prison [ужасы, триллер, драма, мелодрама, 2016] WEB-DLRip, Mvo

salma3

1122 | 234

1.37 ГБ

В этой теме нет новых непрочитанных сообщений. Контроль / Kontroll (Нимрод Антал / Nimród Antal) [2003г., Венгрия, триллер, драма, мелодрама, комедия, криминал, HDRip] avo

Alfredovich

49 | 3

745.85 МБ

В этой теме нет новых непрочитанных сообщений. Игры джентльменов / The Ladykillers [триллер, комедия, криминал, 2004] WEB-DLRip-AVC, Dub

salma3

211 | 23

1.45 ГБ


Начать новую тему Ответить на тему  [ 1 сообщение ] 




Для Мосгорсуда, Роскомнадзора и рекламодателей:: mosgorsud-torrent[собачка]yandex.ru