Торрент файл
скачать торрент магнет ссылка Добавлен: 05 янв 2014, 14:44
Размер: 1.36 ГБ
Сидеров: 354
Личеров: 16
Статус: (Dracon)
Автор

СообщениеДобавлено: 05 янв 2014, 14:44 

Не в сети
Зам. Админа
Аватара пользователя
Дата регистрации:
02 дек 2010, 12:39
Спасибо: 12597 / 214
Сообщения: 28049
Год выхода: 2013
Жанр: Ужасы
Режиссер: Мак Картер
В ролях: Айони Скай, Лиана Либерато, Джеки Уивер, Харрисон Джилбертсон, Даниэль Чачран, Джен Броберг, Лорен Франдсен, Алин Андраде, Джаррод Филлипс, Касия Ковальчук

О фильме:
История в этом фильме про подростка, который со своей семьей переезжают в свой новый дом, который купили накануне переезда. Этот парень на новом месте знакомится с девушкой, которая рассказывает ему историю этого дома и что якобы в нем живет привидения. Они вместе начинают исследовать этот дом или дом исследует их, но во всяком случае в доме начинают происходить страшные вещи, которые угрожают их жизни. В общем очередная страшная история про дом с призраками.....

Страна: США
Продолжительность: 01:27:22
Перевод: Любительский одноголосный.(datynet)

Качество: DVDRip
Видео: Xvid 720x304 25fps [Video]
Звук: MP3 44100Hz stereo 192kbps [Audio]
Субтитры: нету




Format : AVI
Format/Info : Audio Video Interleave
File size : 1.36 GiB
Duration : 1h 27mn
Overall bit rate : 2 231 Kbps
Writing application : VirtualDubMod 1.5.10.2 (build 2540/release)
Writing library : VirtualDub build 34753/release

Video
ID : 0
Format : MPEG-4 Visual
Format profile : Advanced Simple@L5
Format settings, BVOP : Yes
Format settings, QPel : No
Format settings, GMC : No warppoints
Format settings, Matrix : Custom
Codec ID : XVID
Codec ID/Hint : XviD
Duration : 1h 27mn
Bit rate : 2 029 Kbps
Width : 720 pixels
Height : 304 pixels
Display aspect ratio : 2.35:1
Frame rate : 25.000 fps
Color space : YUV
Chroma subsampling : 4:2:0
Bit depth : 8 bits
Scan type : Progressive
Compression mode : Lossy
Bits/(Pixel*Frame) : 0.371
Stream size : 1.24 GiB (91%)
Writing library : XviD 1.2.1 (UTC 2008-12-04)

Audio
ID : 1
Format : MPEG Audio
Format version : Version 1
Format profile : Layer 3
Codec ID : 55
Codec ID/Hint : MP3
Duration : 1h 27mn
Bit rate mode : Constant
Bit rate : 192 Kbps
Channel count : 2 channels
Sampling rate : 44.1 KHz
Compression mode : Lossy
Stream size : 120 MiB (9%)
Alignment : Split accross interleaves
Interleave, duration : 40 ms (1.00 video frame)
Interleave, preload duration : 500 ms




реклама партнёра


Вернуться к началу
 Профиль  
 
   Похожие торренты   Автор   Торрент   Размер 
В этой теме нет новых непрочитанных сообщений. Логово зверя / Прибежище / Haunt (Мак Картер) [ужасы,Триллер, детектив, 2013] HDRip, Dub [iTunes Russia]

Dracon

11 | 2

1.37 ГБ

В этой теме нет новых непрочитанных сообщений. Логово зверя / Haunt [ужасы, детектив, 2013] BDRip 720p, Dub [iTunes Russia]

salma3

11 | 4

4.6 ГБ

В этой теме нет новых непрочитанных сообщений. Логово зверя / Haunt [ужасы, детектив, 2013] BDRip 1080p, Dub [iTunes Russia]

salma3

5 | 4

7.65 ГБ

В этой теме нет новых непрочитанных сообщений. Пирамида / The Pyramid [Ужасы, 2013] DVDRip, avo

Dracon

8 | 3

1.21 ГБ

В этой теме нет новых непрочитанных сообщений. Под землей / The Underneath [Ужасы, 2013] DVDRip. Avo

salma3

23 | 2

729.42 МБ

В этой теме нет новых непрочитанных сообщений. История ужасов / Horror Story [Ужасы, 2013] DVDRip, Dvo

salma3

3 | 4

1.48 ГБ

В этой теме нет новых непрочитанных сообщений. Во власти призрака / Mengejar Setan [ужасы, 2013] DVDRip, Dvo

salma3

159 | 11

1.36 ГБ


Начать новую тему Ответить на тему  [ 1 сообщение ] 




Для Мосгорсуда, Роскомнадзора и рекламодателей:: mosgorsud-torrent[собачка]yandex.ru