Торрент файл
скачать торрент магнет ссылка Добавлен: 04 янв 2014, 15:28
Размер: 2.05 ГБ
Сидеров: 351
Личеров: 56
Статус: (Dracon)
Автор

СообщениеДобавлено: 04 янв 2014, 15:28 

Не в сети
Зам. Админа
Аватара пользователя
Дата регистрации:
02 дек 2010, 12:39
Спасибо: 12623 / 214
Сообщения: 28033
Год выхода: 2013
Жанр: драма, криминал
Режиссер: Шерри Хорман

В ролях: Антония Кэмпбелл-Хьюджес, Туре Линдхардт, Амелия Пиджон, Трине Дюрхольм, Дирбла Моллой, Рёланд Визнеккер, Эллен Швирс, Эрни Мангольд, Себастьян Вебер

О фильме: Фильм основан на реальной истории похищения австрийской девочки Наташи Кампуш, совершенное бывшим техником Вольфгангом Приклопилом, когда ей было 10 лет. В его плену она провела более восьми лет, или 3096 дней.



Страна: США
Продолжительность: 01:49:58
Перевод: Авторский одноголосый (А. Алексеев), Оригинал (Английский)

Кодек: x.264
Качество: BDRip-AVC
Видео: 1024x576 (16:9), 23.976 fps, 2094 kbps, 0.148 bit/pixel
Аудио #1: 48 kHz, AC3 Dolby Digital, 6 ch, ~384.00 kbps | Русский
Аудио #2: 48 kHz, AC3 Dolby Digital, 2 ch, ~192.00 kbps | Английский
Субтитры: Русские, Английские (отключаемые)

Общее
Уникальный идентификатор : 246908311983436317496764040622246469363 (0xB9C0CFA7F72CEAA9BF10CBFFA4D81EF3)
Полное имя : D:3096 Tage.2013.BDRip-AVC.mkv
Формат : Matroska
Версия формата : Version 4 / Version 2
Размер файла : 2,05 Гбайт
Продолжительность : 1 ч. 49 м.
Общий поток : 2672 Кбит/сек
Название фильма : 3096 дней / 3096 Tage (2013) BDRip-AVC rip by Rulya74
Дата кодирования : UTC 2014-01-04 08:38:46
Программа кодирования : mkvmerge v6.5.0 ('Isn't she lovely') built on Oct 20 2013 12:50:05
Библиотека кодирования : libebml v1.3.0 + libmatroska v1.4.1

Видео
Идентификатор : 1
Формат : AVC
Формат/Информация : Advanced Video Codec
Профиль формата : High@L4.1
Параметр CABAC формата : Да
Параметр ReFrames формата : 12 кадров
Идентификатор кодека : V_MPEG4/ISO/AVC
Продолжительность : 1 ч. 49 м.
Битрейт : 2094 Кбит/сек
Ширина : 1024 пикселя
Высота : 576 пикселей
Соотношение сторон : 16:9
Режим частоты кадров : Постоянный
Частота кадров : 23,976 кадра/сек
Цветовое пространство : YUV
Субдискретизация насыщенности : 4:2:0
Битовая глубина : 8 бит
Тип развёртки : Прогрессивная
Бит/(Пиксели*Кадры) : 0.148
Размер потока : 1,57 Гбайт (76%)
Библиотека кодирования : x264 core 138 r2358 9e941d1
Настройки программы : cabac=1 / ref=12 / deblock=1:-3:-3 / analyse=0x3:0x112 / me=umh / subme=11 / psy=1 / psy_rd=1.08:0.12 / mixed_ref=1 / me_range=48 / chroma_me=1 / trellis=2 / 8x8dct=1 / cqm=0 / deadzone=21,11 / fast_pskip=0 / chroma_qp_offset=-3 / threads=4 / lookahead_threads=1 / sliced_threads=0 / nr=0 / decimate=1 / interlaced=0 / bluray_compat=0 / constrained_intra=0 / bframes=13 / b_pyramid=2 / b_adapt=1 / b_bias=0 / direct=3 / weightb=1 / open_gop=0 / weightp=2 / keyint=240 / keyint_min=23 / scenecut=40 / intra_refresh=0 / rc_lookahead=40 / rc=2pass / mbtree=1 / bitrate=2094 / ratetol=1.0 / qcomp=0.60 / qpmin=0 / qpmax=69 / qpstep=4 / cplxblur=20.0 / qblur=0.5 / vbv_maxrate=62500 / vbv_bufsize=78125 / nal_hrd=none / ip_ratio=1.40 / aq=1:1.00
Default : Да
Forced : Нет

Аудио #1
Идентификатор : 2
Формат : AC-3
Формат/Информация : Audio Coding 3
Расширение режима : CM (complete main)
Параметр Endianness формата : Big
Идентификатор кодека : A_AC3
Продолжительность : 1 ч. 49 м.
Вид битрейта : Постоянный
Битрейт : 384 Кбит/сек
Каналы : 6 каналов
Расположение каналов : Front: L C R, Side: L R, LFE
Частота : 48,0 КГц
Битовая глубина : 16 бит
Метод сжатия : С потерями
Размер потока : 302 Мбайт (14%)
Заголовок : Авторский однооголосый (А. Алексеев)
Язык : Russian
Default : Да
Forced : Нет

Аудио #2
Идентификатор : 3
Формат : AC-3
Формат/Информация : Audio Coding 3
Расширение режима : CM (complete main)
Параметр Endianness формата : Big
Идентификатор кодека : A_AC3
Продолжительность : 1 ч. 49 м.
Вид битрейта : Постоянный
Битрейт : 192 Кбит/сек
Каналы : 2 канала
Расположение каналов : Front: L R
Частота : 48,0 КГц
Битовая глубина : 16 бит
Метод сжатия : С потерями
Размер потока : 151 Мбайт (7%)
Заголовок : Оригинал
Язык : English
Default : Нет
Forced : Нет

Текст #1
Идентификатор : 4
Формат : UTF-8
Идентификатор кодека : S_TEXT/UTF8
Идентификатор кодека/Информация : UTF-8 Plain Text
Язык : Russian
Default : Да
Forced : Нет

Текст #2
Идентификатор : 5
Формат : UTF-8
Идентификатор кодека : S_TEXT/UTF8
Идентификатор кодека/Информация : UTF-8 Plain Text
Язык : English
Default : Нет
Forced : Нет





реклама партнёра


Вернуться к началу
 Профиль  
 
   Похожие торренты   Автор   Торрент   Размер 
В этой теме нет новых непрочитанных сообщений. Когда всё уже потеряно / Am Abend aller Tage (Доминик Граф / Dominik Graf) [2017г., Германия, драма, мелодрама, триллер, HDTVRip] sub

Alfredovich

17 | 1

1.33 ГБ

В этой теме нет новых непрочитанных сообщений. Мой мир / Benim Dünyam [драма, 2013] BDRip 1080p, avo+sub

Dracon

4 | 4

7.68 ГБ

В этой теме нет новых непрочитанных сообщений. Жасмин / Blue Jasmine [драма, 2013] BDRip-AVC, Dub

salma3

58 | 2

2.12 ГБ

В этой теме нет новых непрочитанных сообщений. Мой мир / Benim Dünyam [драма, 2013] BDRip 720p, avo+sub

Dracon

6 | 4

4.27 ГБ

В этой теме нет новых непрочитанных сообщений. На работе / On the Job [Боевик, триллер, драма, криминал, 2013] BDRip, Avo

salma3

482 | 154

1.46 ГБ

В этой теме нет новых непрочитанных сообщений. Славные ублюдки / Les salauds [драма, 2013] BDRip 1080p, Mvo+Sub

Dracon

11 | 6

7.78 ГБ

В этой теме нет новых непрочитанных сообщений. Славные ублюдки / Les salauds [драма, 2013] BDRip 720p, Mvo

Dracon

0 | 2

4.5 ГБ


Начать новую тему Ответить на тему  [ 1 сообщение ] 




Для Мосгорсуда, Роскомнадзора и рекламодателей:: mosgorsud-torrent[собачка]yandex.ru