Торрент файл
скачать торрент магнет ссылка Добавлен: 01 янв 2014, 18:01
Размер: 1.36 ГБ
Сидеров: 73
Личеров: 7
Статус: (salma3)
Автор

СообщениеДобавлено: 01 янв 2014, 18:01 

В сети
Супермодератор
Аватара пользователя
Дата регистрации:
15 фев 2012, 16:44
Возраст: 27
Спасибо: 5130 / 2089
Сообщения: 17349
Свидетельство / Evidence

Год выхода: 2011
Жанр: ужасы, триллер
Режиссер: Хоуи Эскинс

В ролях: Райан МакКой, Бретт Джей Розенберг, Эбигейл Ричи, Эшли Брэкен, Зак Фэйхи, Блейн Грэй, Кейт Льюис, Рисдон Робертс...

О фильме: Группа молодых людей отправляется в лес, где один из них, Райан, намерен снять документальный фильм об их поездке. Устроив небольшой лагерь посреди лесной чащи, скоро герои фильма делают открытие, которое положит конец безмятежному отдыху.

Поначалу их привлекают странный шум, который вскоре материализуется в некое существо, имеющее, как выясняется, далеко не мирные намерения в отношении компании друзей. Фильм, который они пытались снимать, в итоге станет единственным свидетельством того, что же произошло на самом деле…



Страна: США
Продолжительность: 01:18:40
Перевод: Профессиональный (многоголосый закадровый)

Файл
Качество: BDRip-AVC
Формат файла: AVC
Видео кодек: x.264
Аудио кодек: AC3
Видео: 1024x576 (16:9), 23.976 fps, 2286 kbps, 0.162 bit/pixel
Звук: 48 kHz, AC3 Dolby Digital, 2 ch, ~192.00 kbps


Общее
Уникальный идентификатор : 250365134308389606847027123012725680236 (0xBC5A9227C7DEC283AB1A8CE49A5CA86C)
Полное имя : D:Evidence.2011.BDRip-AVC.mkv
Формат : Matroska
Версия формата : Version 4 / Version 2
Размер файла : 1,36 Гбайт
Продолжительность : 1 ч. 18 м.
Общий поток : 2480 Кбит/сек
Название фильма : Свидетельство / Evidence (2011) BDRip-AVC rip by Rulya74
Дата кодирования : UTC 2013-12-31 20:20:05
Программа кодирования : mkvmerge v6.5.0 ('Isn't she lovely') built on Oct 20 2013 12:50:05
Библиотека кодирования : libebml v1.3.0 + libmatroska v1.4.1

Видео
Идентификатор : 1
Формат : AVC
Формат/Информация : Advanced Video Codec
Профиль формата : Main@L4.1
Параметр CABAC формата : Да
Параметр ReFrames формата : 11 кадров
Идентификатор кодека : V_MPEG4/ISO/AVC
Продолжительность : 1 ч. 18 м.
Битрейт : 2286 Кбит/сек
Ширина : 1024 пикселя
Высота : 576 пикселей
Соотношение сторон : 16:9
Режим частоты кадров : Постоянный
Частота кадров : 23,976 кадра/сек
Цветовое пространство : YUV
Субдискретизация насыщенности : 4:2:0
Битовая глубина : 8 бит
Тип развёртки : Прогрессивная
Бит/(Пиксели*Кадры) : 0.162
Размер потока : 1,23 Гбайт (90%)
Библиотека кодирования : x264 core 130 r2273 b3065e6
Настройки программы : cabac=1 / ref=11 / deblock=1:-3:-3 / analyse=0x1:0x110 / me=umh / subme=11 / psy=1 / psy_rd=1.30:0.50 / mixed_ref=1 / me_range=48 / chroma_me=1 / trellis=2 / 8x8dct=0 / cqm=0 / deadzone=21,11 / fast_pskip=0 / chroma_qp_offset=-4 / threads=4 / lookahead_threads=1 / sliced_threads=0 / nr=0 / decimate=1 / interlaced=0 / bluray_compat=0 / constrained_intra=0 / bframes=10 / b_pyramid=2 / b_adapt=2 / b_bias=0 / direct=3 / weightb=1 / open_gop=0 / weightp=2 / keyint=250 / keyint_min=25 / scenecut=40 / intra_refresh=0 / rc_lookahead=50 / rc=2pass / mbtree=1 / bitrate=2286 / ratetol=1.0 / qcomp=0.60 / qpmin=0 / qpmax=69 / qpstep=4 / cplxblur=20.0 / qblur=0.5 / ip_ratio=1.40 / aq=1:1.00
Default : Да
Forced : Нет

Аудио
Идентификатор : 2
Формат : AC-3
Формат/Информация : Audio Coding 3
Расширение режима : CM (complete main)
Параметр Endianness формата : Big
Идентификатор кодека : A_AC3
Продолжительность : 1 ч. 18 м.
Вид битрейта : Постоянный
Битрейт : 192 Кбит/сек
Каналы : 2 канала
Расположение каналов : Front: L R
Частота : 48,0 КГц
Битовая глубина : 16 бит
Метод сжатия : С потерями
Размер потока : 108 Мбайт (8%)
Заголовок : Профессиональный (многоголосый закадровый)
Язык : Russian
Default : Да
Forced : Нет


&


_________________



реклама партнёра


Вернуться к началу
 Профиль Отправить личное сообщение  
 
   Похожие торренты   Автор   Торрент   Размер 
В этой теме нет новых непрочитанных сообщений. Свидетельство / Evidence [ужасы, триллер, 2011] BDRemux, 2Mvo+Avo+Sub

salma3

0 | 3

19.99 ГБ

В этой теме нет новых непрочитанных сообщений. Без улик / Without Evidence [Триллер, детектив, драма, 1995] BDRip, Mvo

salma3

0 | 0

1.46 ГБ

В этой теме нет новых непрочитанных сообщений. Юлия Икс / Julia X [триллер, ужасы, 2011] BDRip 720p, mvo

salma3

47 | 5

4.49 ГБ

В этой теме нет новых непрочитанных сообщений. Недетские игры / Come Out and Play [триллер, ужасы, 2011] BDRip 1080p, Mvo+avo

Dracon

20 | 3

7.77 ГБ

В этой теме нет новых непрочитанных сообщений. Недетские игры / Come Out and Play [триллер, ужасы, 2011] BDRip 720p, Mvo+avo

Dracon

31 | 4

3.59 ГБ

В этой теме нет новых непрочитанных сообщений. Список смертников / Kill List [ужасы, триллер, 2011] BDRip 1080p, Mvo

salma3

2 | 2

10.94 ГБ

В этой теме нет новых непрочитанных сообщений. Нечто / The Thing [ужасы, фантастика, триллер, детектив, 2011] BDRip, Avo [Гаврилов]

salma3

134 | 14

1.45 ГБ


Начать новую тему Ответить на тему  [ 1 сообщение ] 




Для Мосгорсуда, Роскомнадзора и рекламодателей:: mosgorsud-torrent[собачка]yandex.ru